На всех торрентах на трекере установлена скидка на скачивание в размере 100 процентов(а).
 Возможность скачивания торрента НЕ зависит от ограничений при низком ратио, низком аплоаде, требуемом ратио или требуемом аплоаде.


Начать новую тему Ответить на тему
Статистика раздачи
Размер: 1.36 ГБ | Добавлен: 06 ноя 2013, 22:57 | Скачали: 0
Сидеров: 0  [0 байт/сек]    Личеров: 0  [0 байт/сек]
Пред. тема | След. тема 

Автор
Сообщение

СообщениеДобавлено: 06 ноя 2013, 22:57 

Название: Вверх и вниз
Оригинальное название: Up&Down
Год выхода: 2012
Жанр: Мелодрама, комедия
Режиссер: Джонатан Карбонаро

В ролях: Тод Хантингтон, Юлин, Филип Хэйес, Бриттни Карбовски, Кори Харт, Эмма Дж. Смит, Клара М. Смит, Курт Коул, Эрнест Джеймс, Ли Стрингер, Лорен Вильясана, Томас МакГенри, Шири Нельсон, Сэмми Десильва, Мэрил Гиббс, Денис Уильямсон

О фильме:
Уилл — невостребованный актёр, нуждающийся в деньгах, — подрабатывает лифтёром в шикарном отеле. Каждый день перед его глазами проходят сотни людей, но однажды в одной из девушек он узнаёт ту единственную, о которой мечтал всю жизнь…


Страна: США
Студия: Potion Pictures, Wavehouse Productions
Продолжительность: 01:20:24
Перевод: Профессиональный двухголосый (НТВ+)


Кодек: MPEG-4 AVC
Качество: HDTVRip (AVC)
Видео: 1967 Кбит/с, 1024x512, 25.000 кадр/с
Звук: Русский (АС3, 6 ch, 448 Кбит/с)

Семпл


Общее
Полное имя : Vverx.i.vniz.2012.x264.HDTVRip(AVC).MediaClub.mkv
Формат : Matroska
Версия формата : Version 2
Размер файла : 1,36 Гбайт
Продолжительность : 1 ч. 20 м.
Общий поток : 2416 Кбит/сек
Дата кодирования : UTC 2013-11-06 16:37:33
Программа кодирования : mkvmerge v5.4.0 ('Piper') built on Mar 10 2012 13:34:39
Библиотека кодирования : libebml v1.2.3 + libmatroska v1.3.0

Видео
Идентификатор : 1
Формат : AVC
Формат/Информация : Advanced Video Codec
Профиль формата : High@L4.1
Параметр CABAC формата : Да
Параметр ReFrames формата : 9 кадров
Идентификатор кодека : V_MPEG4/ISO/AVC
Продолжительность : 1 ч. 20 м.
Битрейт : 1967 Кбит/сек
Ширина : 1024 пикселя
Высота : 512 пикселей
Соотношение сторон : 2,000
Режим частоты кадров : Постоянный
Частота кадров : 25,000 кадров/сек
Цветовое пространство : YUV
Субдискретизация насыщенности : 4:2:0
Битовая глубина : 8 бит
Тип развёртки : Прогрессивная
Бит/(Пиксели*Кадры) : 0.150
Размер потока : 1,08 Гбайт (79%)
Библиотека кодирования : x264 core 125 r2208 d9d2288
Настройки программы : cabac=1 / ref=9 / deblock=1:-2:-2 / analyse=0x3:0x133 / me=umh / subme=10 / psy=1 / psy_rd=1.00:0.15 / mixed_ref=1 / me_range=32 / chroma_me=1 / trellis=2 / 8x8dct=1 / cqm=0 / deadzone=21,11 / fast_pskip=0 / chroma_qp_offset=-3 / threads=6 / lookahead_threads=1 / sliced_threads=0 / nr=0 / decimate=0 / interlaced=0 / bluray_compat=0 / constrained_intra=0 / bframes=8 / b_pyramid=2 / b_adapt=2 / b_bias=0 / direct=3 / weightb=1 / open_gop=0 / weightp=2 / keyint=250 / keyint_min=25 / scenecut=40 / intra_refresh=0 / rc=2pass / mbtree=0 / bitrate=1967 / ratetol=1.0 / qcomp=0.60 / qpmin=0 / qpmax=69 / qpstep=4 / cplxblur=20.0 / qblur=0.5 / ip_ratio=1.40 / pb_ratio=1.30 / aq=1:0.80
Default : Да
Forced : Нет

Аудио
Идентификатор : 2
Формат : AC-3
Формат/Информация : Audio Coding 3
Расширение режима : CM (complete main)
Параметр Endianness формата : Big
Идентификатор кодека : A_AC3
Продолжительность : 1 ч. 20 м.
Вид битрейта : Постоянный
Битрейт : 448 Кбит/сек
Каналы : 6 каналов
Расположение каналов : Front: L C R, Side: L R, LFE
Частота : 48,0 КГц
Битовая глубина : 16 бит
Метод сжатия : С потерями
Размер потока : 258 Мбайт (19%)
Язык : Russian
Default : Да
Forced : Нет


Релиз от:
загрузка...
Правила, инструкции, FAQ!!!
Торрент  Добавлен [06 ноя 2013, 22:57] Скачать торрент
Скачать торрент
[ Размер 14.08 КБ / Просмотров 6 ]

Статус  
 
Размер  1.36 ГБ
Приватный: Нет (DHT включён)
.torrent скачан  0
Как залить торрент? | Как скачать Torrent? | Как смотреть и слушать онлайн?  


     Отправить личное сообщение
   
Страница 1 из 1
Показать сообщения за:  Поле сортировки  
Начать новую тему Ответить на тему

   Похожие торренты   Автор   Ответы   Просмотры   Последнее сообщение 
В этой теме нет новых непрочитанных сообщений. Скачать торрент Проверен Кауфман Б. / Kaufman B. - Вверх по лестнице, ведущей вниз / Up the Down Staircase [2010 (1989 Reprint), PDF, FB2, RUS]

в форуме Зарубежная литература (XX и XXI век), Размер: 14.02 МБ, Здоровье: 100%

Anonymous

0
11|4

4
0

08 сен 2016, 20:14

Anonymous Перейти к последнему сообщению

В этой теме нет новых непрочитанных сообщений. Скачать торрент Проверен (Pop) Руки Вверх! - Открой мне дверь - 2012, MP3, 320 kbps

в форуме Отечественная музыка, Размер: 133.67 МБ, Здоровье: 100%

Anonymous

0
26|8

33
2

30 июл 2016, 15:11

Anonymous Перейти к последнему сообщению

В этой теме нет новых непрочитанных сообщений. Скачать торрент Проверен Руки Вверх! - Открой мне дверь! (2012) [FLAC|lossless] <Pop>

в форуме Отечественная музыка, Размер: 420.03 МБ, Здоровье: 5%

Гость

0
6|120

74
0

21 дек 2014, 02:14

Гость Перейти к последнему сообщению

В этой теме нет новых непрочитанных сообщений. Скачать торрент Проверен Владимир Колычев | Я сломалась и падаю вниз (2014) [FB2]

в форуме Детективы и Боевики, Размер: 1017.29 КБ, Здоровье: 100%

Anonymous

0
18|2

29
0

20 сен 2014, 22:14

Anonymous Перейти к последнему сообщению

В этой теме нет новых непрочитанных сообщений. Скачать торрент Проверен (Rock) Гольфстрим - Вниз головой, 2002, MP3, 192 kbps

в форуме Русский Рок, Размер: 91.19 МБ, Здоровье: 0%

Anonymous

0
0|0

2
0

21 авг 2016, 08:12

Anonymous Перейти к последнему сообщению



Сейчас этот форум просматривают: нет зарегистрированных пользователей и гости: 5


Вы не можете начинать темы
Вы не можете отвечать на сообщения
Вы не можете редактировать свои сообщения
Вы не можете удалять свои сообщения
Вы не можете добавлять вложения

Перейти:  

!ВНИМАНИЕ!
 Ресурс не предоставляет электронные версии произведений, а занимается лишь коллекционированием и каталогизацией ссылок, присылаемых и публикуемых на форуме нашими читателями. Если вы являетесь правообладателем какого-либо представленного материала и не желаете чтобы ссылка на него находилась в нашем каталоге, свяжитесь с нами и мы незамедлительно удалим её. Файлы для обмена на трекере предоставлены пользователями сайта, и администрация не несёт ответственности за их содержание. Просьба не заливать файлы, защищенные авторскими правами, а также файлы нелегального содержания!