На всех торрентах на трекере установлена скидка на скачивание в размере 100 процентов(а).
 Возможность скачивания торрента НЕ зависит от ограничений при низком ратио, низком аплоаде, требуемом ратио или требуемом аплоаде.


Начать новую тему Ответить на тему
Статистика раздачи
Размер: 4.37 ГБ | Добавлен: 06 ноя 2013, 15:01 | Скачали: 36
Сидеров: 4  [0 байт/сек]    Личеров: 1  [0 байт/сек]
Пред. тема | След. тема 

Автор
Сообщение

СообщениеДобавлено: 06 ноя 2013, 15:01 



Информация о фильме
Русское название: Я знаю, что вы сделали прошлым летом
Оригинальное название: I Know What You Did Last Summer
Год выхода: 1997
Жанр: Триллер, ужасы, детектив
Режиссер: Джим Гиллеспи
Выпущено: Columbia Pictures Corporation, Mandalay Entertainment, Summer Knowledge LLC
Продолжительность: 01:40:53
В ролях: Дженнифер Лав Хьюитт, Сара Мишель Геллар, Райан Филипп, Фредди Принц мл., Бриджит Уилсон, Энн Хеч, Джонни Галэки, Мьюз Уотсон, Стюарт Грир, Дж. Дон Фергюсон, Дебора Хобарт, Мэри МакМиллан, Дэн Олбрайт, Линда Кларк, Дженнифер Блэнд, Уильям Нили, Джонатан Кен, Ричард Дэйл Миллер, Мэри Нева Хафф, Дэвид Ли Хартман, Патти Д’Арбанвиль
Перевод: Профессиональный многоголосый закадровый, закадровый (авторский одноголосый, Гаврилов) , закадровый (авторский одноголосый, Живов), English



Сюжет фильма

Джули, Хелен, Барри и Рэй весело провели вечер на берегу моря. Возвращаясь домой, они сбивают непонятно откуда взявшегося на дороге человека. Решив, что он мёртв, и не желая лишних неприятностей, они сбрасывают тело в море. Проходит год, и становится ясно, что кто-то знает их тайну, ибо непосредственные участники происшествия годичной давности начинают получать странные послания, содержащие надпись Я знаю, что вы сделали прошлым летом. Девушки начинают собственное расследование, желая узнать что-то конкретное о парне, которого сбили. Подозрения падают на их бывшего одноклассника Макса, но вскоре его убивают, и ребята понимают, что им угрожает опасность - тот, кто знает, что они сделали прошлым летом, готов на всё, чтобы отомстить им. Убийца одевается в дождевой плащ моряка, а в качестве оружия использует металлический крюк.



Файл
Качество: BDRip 720p (исходник Blu-ray-Remux)
Видео: 1280x534, ~3 642 Кбит/сек, 23,976 кадр/сек, AVC, x264, High@L4.1, 0.222 Бит/[Пиксели*Кадры], 2pass
Аудио 1: AC-3, 640 Кбит/сек, 6 канала(ов), 48,0 КГц -Профессиональный многоголосый закадровый
Аудио 2: AC-3, 640 Кбит/сек, 6 канала(ов), 48,0 КГц - закадровый (авторский одноголосый, Гаврилов)
Аудио 3: AC-3, 640 Кбит/сек, 6 канала(ов), 48,0 КГц - закадровый (авторский одноголосый, Живов)
Аудио 4: AC-3, 640 Кбит/сек, 6 канала(ов), 48,0 КГц - English

Чаптеры: есть
Субтитры: Русские



Автор Рипа:


Релиз от








Format : Matroska
Format version : Version 2
File size : 4.37 GiB
Duration : 1h 40mn
Overall bit rate : 6 201 Kbps
Movie name : Я знаю, что вы сделали прошлым летом.(1997).BDRip.720p.[denis100]
Encoded date : UTC 2013-11-05 08:30:52
Writing application : mkvmerge v5.8.0 ('No Sleep / Pillow') built on Sep 2 2012 15:37:04
Writing library : libebml v1.2.3 + libmatroska v1.3.0

Video
ID : 1
Format : AVC
Format/Info : Advanced Video Codec
Format profile : High@L4.1
Format settings, CABAC : Yes
Format settings, ReFrames : 12 frames
Codec ID : V_MPEG4/ISO/AVC
Duration : 1h 40mn
Bit rate : 3 642 Kbps
Width : 1 280 pixels
Height : 534 pixels
Display aspect ratio : 2.40:1
Frame rate mode : Constant
Frame rate : 23.976 fps
Color space : YUV
Chroma subsampling : 4:2:0
Bit depth : 8 bits
Scan type : Progressive
Bits/(Pixel*Frame) : 0.222
Stream size : 2.48 GiB (57%)
Title : Я знаю, что вы сделали прошлым летом.(1997).BDRip.720p.[denis100]
Writing library : x264 core 140 r2377 1ca7bb9
Encoding settings : cabac=1 / ref=12 / deblock=1:-3:-3 / analyse=0x3:0x133 / me=umh / subme=11 / psy=1 / psy_rd=1.00:0.10 / mixed_ref=1 / me_range=32 / chroma_me=1 / trellis=2 / 8x8dct=1 / cqm=0 / deadzone=21,11 / fast_pskip=0 / chroma_qp_offset=-3 / threads=6 / lookahead_threads=1 / sliced_threads=0 / nr=0 / decimate=0 / interlaced=0 / bluray_compat=0 / constrained_intra=0 / bframes=6 / b_pyramid=2 / b_adapt=2 / b_bias=0 / direct=3 / weightb=1 / open_gop=0 / weightp=2 / keyint=240 / keyint_min=23 / scenecut=40 / intra_refresh=0 / rc=2pass / mbtree=0 / bitrate=3642 / ratetol=1.0 / qcomp=0.60 / qpmin=0 / qpmax=69 / qpstep=4 / cplxblur=20.0 / qblur=0.5 / ip_ratio=1.40 / pb_ratio=1.30 / aq=1:0.90
Language : English
Default : Yes
Forced : No

Audio #1
ID : 2
Format : AC-3
Format/Info : Audio Coding 3
Mode extension : CM (complete main)
Format settings, Endianness : Big
Codec ID : A_AC3
Duration : 1h 40mn
Bit rate mode : Constant
Bit rate : 640 Kbps
Channel count : 6 channels
Channel positions : Front: L C R, Side: L R, LFE
Sampling rate : 48.0 KHz
Bit depth : 16 bits
Compression mode : Lossy
Stream size : 462 MiB (10%)
Title : закадровый (многоголосый)
Language : Russian
Default : Yes
Forced : No

Audio #2
ID : 3
Format : AC-3
Format/Info : Audio Coding 3
Mode extension : CM (complete main)
Format settings, Endianness : Big
Codec ID : A_AC3
Duration : 1h 40mn
Bit rate mode : Constant
Bit rate : 640 Kbps
Channel count : 6 channels
Channel positions : Front: L C R, Side: L R, LFE
Sampling rate : 48.0 KHz
Bit depth : 16 bits
Compression mode : Lossy
Stream size : 462 MiB (10%)
Title : закадровый (авторский одноголосый, Гаврилов)
Language : Russian
Default : No
Forced : No

Audio #3
ID : 4
Format : AC-3
Format/Info : Audio Coding 3
Mode extension : CM (complete main)
Format settings, Endianness : Big
Codec ID : A_AC3
Duration : 1h 40mn
Bit rate mode : Constant
Bit rate : 640 Kbps
Channel count : 6 channels
Channel positions : Front: L C R, Side: L R, LFE
Sampling rate : 48.0 KHz
Bit depth : 16 bits
Compression mode : Lossy
Stream size : 462 MiB (10%)
Title : закадровый (авторский одноголосый, Живов)
Language : Russian
Default : No
Forced : No

Audio #4
ID : 5
Format : AC-3
Format/Info : Audio Coding 3
Mode extension : CM (complete main)
Format settings, Endianness : Big
Codec ID : A_AC3
Duration : 1h 40mn
Bit rate mode : Constant
Bit rate : 640 Kbps
Channel count : 6 channels
Channel positions : Front: L C R, Side: L R, LFE
Sampling rate : 48.0 KHz
Bit depth : 16 bits
Compression mode : Lossy
Stream size : 462 MiB (10%)
Title : English
Language : English
Default : No
Forced : No

Text
ID : 6
Format : UTF-8
Codec ID : S_TEXT/UTF8
Codec ID/Info : UTF-8 Plain Text
Title : Русские
Language : Russian
Default : No
Forced : No

Menu
00:00:00.000 : en:00:00:00.000
00:08:40.562 : en:00:08:40.562
00:13:02.448 : en:00:13:02.448
00:20:24.974 : en:00:20:24.974
00:22:53.581 : en:00:22:53.581
00:25:24.189 : en:00:25:24.189
00:37:10.687 : en:00:37:10.687
00:42:31.549 : en:00:42:31.549
00:46:43.467 : en:00:46:43.467
00:53:11.605 : en:00:53:11.605
01:00:57.487 : en:01:00:57.487
01:08:02.161 : en:01:08:02.161
01:12:46.445 : en:01:12:46.445
01:18:58.734 : en:01:18:58.734
01:24:47.958 : en:01:24:47.958
01:31:50.171 : en:01:31:50.171



x264 [info]: frame I:1335 Avg QP:15.95 size:104641
x264 [info]: frame P:33715 Avg QP:19.19 size: 34404
x264 [info]: frame B:110078 Avg QP:20.84 size: 13201


загрузка...
Правила, инструкции, FAQ!!!
Торрент  Добавлен [06 ноя 2013, 15:01] Скачать торрент
Скачать торрент
[ Размер 22.33 КБ / Просмотров 4 ]

Статус  
 
Размер  4.37 ГБ
Приватный: Нет (DHT включён)
.torrent скачан  36
Как залить торрент? | Как скачать Torrent? | Как смотреть и слушать онлайн?  


     Отправить личное сообщение
   
Страница 1 из 1
Показать сообщения за:  Поле сортировки  
Начать новую тему Ответить на тему

   Похожие торренты   Автор   Ответы   Просмотры   Последнее сообщение 
В этой теме нет новых непрочитанных сообщений. Скачать торрент Проверен Я знаю, что вы сделали прошлым летом / I Know What You Did Last Summer (1997) BDRip 1080p | P, A

в форуме 720p | 1080p, Размер: 6.86 ГБ, Здоровье: 66%

Гость

0
4|6

96
26

20 апр 2015, 01:25

Гость Перейти к последнему сообщению

В этой теме нет новых непрочитанных сообщений. Скачать торрент Проверен Я знаю, что вы сделали прошлым летом / I Know What You Did Last Summer [1997 г., Детектив, HDRip]

в форуме Детективы, Размер: 1.46 ГБ, Здоровье: 100%

Anonymous

0
38|11

177
1

14 ноя 2014, 19:00

Anonymous Перейти к последнему сообщению

В этой теме нет новых непрочитанных сообщений. Скачать торрент Прошлым летом в Чулимске (2014) HDTVRip

в форуме Драмы, Мелодрамы, Размер: 1.37 ГБ, Здоровье: 0%

Anonymous

0
0|0

71
0

20 апр 2014, 09:08

Anonymous Перейти к последнему сообщению

В этой теме нет новых непрочитанных сообщений. Скачать торрент Проверен Лето Дакоты / Dakota's Summer (2014) BDRip 720p | L1

в форуме 720p | 1080p, Размер: 4.49 ГБ, Здоровье: 100%

Anonymous

0
8|0

46
98

30 май 2014, 22:22

Anonymous Перейти к последнему сообщению

В этой теме нет новых непрочитанных сообщений. Скачать торрент Проверен The Rolling Stones - Sweet Summer Sun - Hyde Park Live [2013, Rock, BDRip 720p]

в форуме Концерты (HD-Video), Размер: 4.37 ГБ, Здоровье: 100%

Гость

0
5|2

62
0

29 апр 2015, 19:18

Гость Перейти к последнему сообщению



Сейчас этот форум просматривают: нет зарегистрированных пользователей и гости: 1


Вы не можете начинать темы
Вы не можете отвечать на сообщения
Вы не можете редактировать свои сообщения
Вы не можете удалять свои сообщения
Вы не можете добавлять вложения

Перейти:  

!ВНИМАНИЕ!
 Ресурс не предоставляет электронные версии произведений, а занимается лишь коллекционированием и каталогизацией ссылок, присылаемых и публикуемых на форуме нашими читателями. Если вы являетесь правообладателем какого-либо представленного материала и не желаете чтобы ссылка на него находилась в нашем каталоге, свяжитесь с нами и мы незамедлительно удалим её. Файлы для обмена на трекере предоставлены пользователями сайта, и администрация не несёт ответственности за их содержание. Просьба не заливать файлы, защищенные авторскими правами, а также файлы нелегального содержания!