На всех торрентах на трекере установлена скидка на скачивание в размере 100 процентов(а).
 Возможность скачивания торрента НЕ зависит от ограничений при низком ратио, низком аплоаде, требуемом ратио или требуемом аплоаде.


Начать новую тему Ответить на тему
Статистика раздачи
Размер: 1.45 ГБ | Добавлен: 04 дек 2012, 11:32 | Скачали: 0
Сидеров: 0  [0 байт/сек]    Личеров: 0  [0 байт/сек]
Пред. тема | След. тема 

Автор
Сообщение

СообщениеДобавлено: 04 дек 2012, 11:15 

Информация о фильме
Название: Я, снова я и Ирэн
Оригинальное название: Me, Myself & Irene
Год выхода: 2000
Жанр: комедия
Режиссер: Бобби Фаррелли, Питер Фаррелли

В ролях: Джим Керри, Рене Зельвегер, Энтони Андерсон, Соо Браунли, Кейт Форстер, Джерод Миксон, Крис Купер, Майкл Боуман, Ричард Дженкинс, Роберт Форстер

О фильме: Чарли — добрый и отзывчивый патрульный полицейский. Но вот беда — он страдает раздвоением личности. Когда кто-то пытается надавить на него, появляется Хэнк — второе «Я» Чарли. Это грубый, жестокий, агрессивный и невоспитанный тип, любитель выпивки и сквернословия.

Жизнь Чарли превращается в сущий кошмар, ибо Хэнк всегда появляется не вовремя, и постоянно портит ему жизнь. Только в одном их мнения совпадают, — они оба влюбляются в Ирен, но кого из них выберет капризная красавица?



Страна: США
Продолжительность: 01:56:33
Перевод: Дублированный

Файл
Формат: mkv
Кодек: h.264
Качество: BDRip-AVC
Видео: 1024x554 (16:9), 23.976 fps, 1396 kbps, 0.103 bit/pixel
Звук: 48 kHz, AC3 5.1, 384.00 kbps



Общее
Уникальный идентификатор : 210924921776641452944272313628582592636 (0x9EAEA98B9F4DB931A1ECD63B5F69C07C)
Полное имя : D:Me, Myself & Irene.2000.BDRip-AVC.mkv
Формат : Matroska
Версия формата : Version 2
Размер файла : 1,45 Гбайт
Продолжительность : 1 ч. 56 м.
Общий поток : 1781 Кбит/сек
Название фильма : Я, снова я и Ирэн / Me, Myself & Irene (2000) BDRip-AVC rip by Rulya74
Дата кодирования : UTC 2012-12-04 04:36:20
Программа кодирования : mkvmerge v5.7.0 ('The Whirlwind') built on Jul 8 2012 20:08:51
Библиотека кодирования : libebml v1.2.3 + libmatroska v1.3.0

Видео
Идентификатор : 1
Формат : AVC
Формат/Информация : Advanced Video Codec
Профиль формата : High@L4.1
Параметр CABAC формата : Да
Параметр ReFrames формата : 12 кадров
Идентификатор кодека : V_MPEG4/ISO/AVC
Продолжительность : 1 ч. 56 м.
Битрейт : 1396 Кбит/сек
Ширина : 1024 пикселя
Высота : 554 пикселя
Соотношение сторон : 16:9
Частота кадров : 23,976 кадра/сек
Цветовое пространство : YUV
Субдискретизация насыщенности : 4:2:0
Битовая глубина : 8 бит
Тип развёртки : Прогрессивная
Бит/(Пиксели*Кадры) : 0.103
Размер потока : 1,11 Гбайт (76%)
Библиотека кодирования : x264 core 129 r2230 1cffe9f
Настройки программы : cabac=1 / ref=12 / deblock=1:-2:-1 / analyse=0x3:0x133 / me=umh / subme=10 / psy=1 / psy_rd=1.09:0.07 / mixed_ref=1 / me_range=40 / chroma_me=1 / trellis=2 / 8x8dct=1 / cqm=0 / deadzone=21,11 / fast_pskip=0 / chroma_qp_offset=-3 / threads=2 / lookahead_threads=1 / sliced_threads=0 / nr=0 / decimate=1 / interlaced=0 / bluray_compat=0 / constrained_intra=0 / bframes=6 / b_pyramid=2 / b_adapt=2 / b_bias=0 / direct=3 / weightb=1 / open_gop=0 / weightp=2 / keyint=240 / keyint_min=23 / scenecut=40 / intra_refresh=0 / rc_lookahead=40 / rc=2pass / mbtree=1 / bitrate=1396 / ratetol=1.0 / qcomp=0.60 / qpmin=10 / qpmax=51 / qpstep=4 / cplxblur=20.0 / qblur=0.5 / ip_ratio=1.40 / aq=2:1.00
Default : Да
Forced : Нет

Аудио
Идентификатор : 2
Формат : AC-3
Формат/Информация : Audio Coding 3
Расширение режима : CM (complete main)
Идентификатор кодека : A_AC3
Продолжительность : 1 ч. 56 м.
Вид битрейта : Постоянный
Битрейт : 384 Кбит/сек
Каналы : 6 каналов
Расположение каналов : Front: L C R, Side: L R, LFE
Частота : 48,0 КГц
Битовая глубина : 16 бит
Метод сжатия : С потерями
Размер потока : 320 Мбайт (22%)
Заголовок : Дублированный
Язык : Russian
Default : Да
Forced : Нет

загрузка...
Правила, инструкции, FAQ!!!
Торрент  Добавлен [04 дек 2012, 11:32] Скачать торрент
Скачать торрент
[ Размер 15.06 КБ / Просмотров 20 ]

Статус
Проверен 
 
Размер  1.45 ГБ
Приватный: Нет (DHT включён)
.torrent скачан  0
Как залить торрент? | Как скачать Torrent? | Как смотреть и слушать онлайн?  


     Отправить личное сообщение
   
Страница 1 из 1
Показать сообщения за:  Поле сортировки  
Начать новую тему Ответить на тему

   Похожие торренты   Автор   Ответы   Просмотры   Последнее сообщение 
В этой теме нет новых непрочитанных сообщений. Скачать торрент Проверен Я, снова я и Ирэн / Me, Myself & Irene (Бобби Фаррелли, Питер Фаррелли / Bobby Farrelly, Peter Farrelly) [2000, США, комедия, BDRip, 480p] Dub + Original + sub (rus, eng)

в форуме Фильмы для iPod, iPhone, iPad, Размер: 1.44 ГБ, Здоровье: 100%

Anonymous

0
14|4

28
0

11 май 2015, 01:38

Anonymous Перейти к последнему сообщению

В этой теме нет новых непрочитанных сообщений. Скачать торрент Проверен (Pop, Rock, France) [CD] Irene Fargo - Irene Fargo (1990 - 1991), FLAC (tracks+.cue), lossless

в форуме Зарубежная музыка, Размер: 220.03 МБ, Здоровье: 100%

Anonymous

0
2|1

1
1

12 авг 2016, 18:11

Anonymous Перейти к последнему сообщению

В этой теме нет новых непрочитанных сообщений. Скачать торрент Проверен Саймак Клиффорд - Снова и снова [Игорь Мурашко, 2003, 80 kbps]

в форуме Зарубежная фантастика, фэнтези, мистика, ужасы, Размер: 307 МБ, Здоровье: 0%

Anonymous

0
0|0

1
0

11 сен 2016, 11:42

Anonymous Перейти к последнему сообщению

В этой теме нет новых непрочитанных сообщений. Скачать торрент Проверен Он снова здесь / Er ist wieder da (2015) BDRip | A

в форуме Комедии, Размер: 1.46 ГБ, Здоровье: 100%

Гость

0
167|7

120
214

03 май 2016, 11:12

Гость Перейти к последнему сообщению

В этой теме нет новых непрочитанных сообщений. Скачать торрент Проверен Папе снова 17 / 17 Again (2009) BDRip от HQ-ViDEO | D

в форуме Комедии, Размер: 1.46 ГБ, Здоровье: 100%

Гость

0
82|33

130
63

28 апр 2015, 23:02

Гость Перейти к последнему сообщению



Сейчас этот форум просматривают: нет зарегистрированных пользователей и гости: 3


Вы не можете начинать темы
Вы не можете отвечать на сообщения
Вы не можете редактировать свои сообщения
Вы не можете удалять свои сообщения
Вы не можете добавлять вложения

Перейти:  

!ВНИМАНИЕ!
 Ресурс не предоставляет электронные версии произведений, а занимается лишь коллекционированием и каталогизацией ссылок, присылаемых и публикуемых на форуме нашими читателями. Если вы являетесь правообладателем какого-либо представленного материала и не желаете чтобы ссылка на него находилась в нашем каталоге, свяжитесь с нами и мы незамедлительно удалим её. Файлы для обмена на трекере предоставлены пользователями сайта, и администрация не несёт ответственности за их содержание. Просьба не заливать файлы, защищенные авторскими правами, а также файлы нелегального содержания!