На всех торрентах на трекере установлена скидка на скачивание в размере 100 процентов(а).
 Возможность скачивания торрента НЕ зависит от ограничений при низком ратио, низком аплоаде, требуемом ратио или требуемом аплоаде.


Начать новую тему Ответить на тему
Статистика раздачи
Размер: 4.37 ГБ | Добавлен: 05 ноя 2013, 11:34 | Скачали: 0
Сидеров: 0  [0 байт/сек]    Личеров: 0  [0 байт/сек]
Пред. тема | След. тема 

Автор
Сообщение

СообщениеДобавлено: 05 ноя 2013, 11:34 

Информация о фильме
Русское название: Пусть пули летят
Оригинальное название: Let the Bullets Fly
Год выхода: 2010
Жанр: Комедийный боевик, вестерн
Режиссер: Цзян Вэнь
Выпущено: Гонконг, Китай, Beijing Bu Yi Le Hu Film Company, China Film Group Corporation, Emperor Motion Pictures
Продолжительность: 02:12:01
В ролях: Юнь-Фат Чоу, Карина Лау, Фэн Сяоган, Цзян У, Цзян Вэнь, Кун Чен, Цзюнь Ху, Гэ Ю, Чжоу Юнь, Шао Бин

Перевод: Авторский Одноголосый закадровый, Юрий Сербин



Сюжет фильма

Действие происходит в эру милитаристов в Китае (1912—1927). Чжан Мучжи, главарь банды, похищает главу города Лао Тана и его жену. В маленьком сонном городке они встречают другого бандита Хуан Сылана, что приводит к эпической битве не на жизнь, а на смерть.



Файл
Качество: BDRip 720p (исходник Blu-ray-Remux)
Видео: 1280x544, ~4 292 Кбит/сек, 24.000 кадр/сек, AVC, x264, High@L4.1, 0.257 Бит/[Пиксели*Кадры], 2pass
Аудио 1: AC-3, 448 Кбит/сек, 6 канала(ов), 48,0 КГц -Авторский Одноголосый закадровый, Юрий Сербин

Чаптеры: есть


Автор Рипа:


Релиз от








Format : Matroska
Format version : Version 2
File size : 4.37 GiB
Duration : 2h 12mn
Overall bit rate : 4 739 Kbps
Movie name : Пусть пули летят.(2010).BDRip.720p.[denis100]
Encoded date : UTC 2013-11-05 08:44:07
Writing application : mkvmerge v5.8.0 ('No Sleep / Pillow') built on Sep 2 2012 15:37:04
Writing library : libebml v1.2.3 + libmatroska v1.3.0

Video
ID : 1
Format : AVC
Format/Info : Advanced Video Codec
Format profile : High@L4.1
Format settings, CABAC : Yes
Format settings, ReFrames : 12 frames
Codec ID : V_MPEG4/ISO/AVC
Duration : 2h 12mn
Bit rate : 4 292 Kbps
Width : 1 280 pixels
Height : 544 pixels
Display aspect ratio : 2.35:1
Frame rate mode : Constant
Frame rate : 24.000 fps
Color space : YUV
Chroma subsampling : 4:2:0
Bit depth : 8 bits
Scan type : Progressive
Bits/(Pixel*Frame) : 0.257
Stream size : 3.87 GiB (89%)
Title : Пусть пули летят.(2010).BDRip.720p.[denis100]
Writing library : x264 core 140 r2377 1ca7bb9
Encoding settings : cabac=1 / ref=12 / deblock=1:0:0 / analyse=0x3:0x133 / me=umh / subme=11 / psy=1 / psy_rd=1.00:0.10 / mixed_ref=1 / me_range=32 / chroma_me=1 / trellis=2 / 8x8dct=1 / cqm=0 / deadzone=21,11 / fast_pskip=0 / chroma_qp_offset=-3 / threads=6 / lookahead_threads=1 / sliced_threads=0 / nr=0 / decimate=0 / interlaced=0 / bluray_compat=0 / constrained_intra=0 / bframes=5 / b_pyramid=2 / b_adapt=2 / b_bias=0 / direct=3 / weightb=1 / open_gop=0 / weightp=2 / keyint=240 / keyint_min=23 / scenecut=40 / intra_refresh=0 / rc=2pass / mbtree=0 / bitrate=4292 / ratetol=1.0 / qcomp=0.60 / qpmin=0 / qpmax=69 / qpstep=4 / cplxblur=20.0 / qblur=0.5 / ip_ratio=1.40 / pb_ratio=1.30 / aq=1:0.90
Language : English
Default : Yes
Forced : No

Audio
ID : 2
Format : AC-3
Format/Info : Audio Coding 3
Mode extension : CM (complete main)
Format settings, Endianness : Big
Codec ID : A_AC3
Duration : 2h 12mn
Bit rate mode : Constant
Bit rate : 448 Kbps
Channel count : 6 channels
Channel positions : Front: L C R, Side: L R, LFE
Sampling rate : 48.0 KHz
Bit depth : 16 bits
Compression mode : Lossy
Stream size : 423 MiB (9%)
Title : Закадровый (Авторский - Юрий Сербин),
Language : Russian
Default : Yes
Forced : No

Menu
00:00:00.000 : en:00:00:00.000
00:07:16.083 : en:00:07:16.083
00:14:34.458 : en:00:14:34.458
00:22:37.917 : en:00:22:37.917
00:30:26.958 : en:00:30:26.958
00:34:41.333 : en:00:34:41.333
00:41:57.708 : en:00:41:57.708
00:47:32.875 : en:00:47:32.875
00:54:45.792 : en:00:54:45.792
01:02:59.625 : en:01:02:59.625
01:09:15.542 : en:01:09:15.542
01:12:37.583 : en:01:12:37.583
01:21:01.750 : en:01:21:01.750
01:30:25.458 : en:01:30:25.458
01:36:17.667 : en:01:36:17.667
01:46:05.958 : en:01:46:05.958
01:54:11.083 : en:01:54:11.083
02:04:09.333 : en:02:04:09.333



x264 [info]: frame I:2987 Avg QP:18.25 size: 92741
x264 [info]: frame P:47826 Avg QP:19.87 size: 41683
x264 [info]: frame B:139293 Avg QP:21.42 size: 13944


загрузка...
Правила, инструкции, FAQ!!!
Торрент  Добавлен [05 ноя 2013, 11:34] Скачать торрент
Скачать торрент
[ Размер 22.29 КБ / Просмотров 8 ]

Статус  
 
Размер  4.37 ГБ
Приватный: Нет (DHT включён)
.torrent скачан  0
Как залить торрент? | Как скачать Torrent? | Как смотреть и слушать онлайн?  


     Отправить личное сообщение
   
Страница 1 из 1
Показать сообщения за:  Поле сортировки  
Начать новую тему Ответить на тему

   Похожие торренты   Автор   Ответы   Просмотры   Последнее сообщение 
В этой теме нет новых непрочитанных сообщений. Скачать торрент Проверен 22 пули: Бессмертный / 22 Bullets / L'immortel (2010) BDRip | Лицензия

в форуме Боевики, Размер: 2.18 ГБ, Здоровье: 100%

Гость

0
53|4

32
6

05 дек 2014, 00:34

Гость Перейти к последнему сообщению

В этой теме нет новых непрочитанных сообщений. Скачать торрент Проверен Лекарство от скуки - Steve Brewer - Брюер Стив - Bullets / Пули [2005, RTF, RUS]

в форуме Детективы и Боевики, Размер: 487.04 КБ, Здоровье: 0%

Anonymous

0
0|0

3
0

08 сен 2016, 21:09

Anonymous Перейти к последнему сообщению

В этой теме нет новых непрочитанных сообщений. Скачать торрент Проверен The GazettE - Tour 10 Nameless Liberty Six Bullets -01- [2010, Jrock, HDTVRip 720p]

в форуме Концерты (HD-Video), Размер: 2.91 ГБ, Здоровье: 100%

Anonymous

0
2|1

2
0

23 окт 2016, 13:56

Anonymous Перейти к последнему сообщению

В этой теме нет новых непрочитанных сообщений. Скачать торрент Проверен 22 пули: Бессмертный (L'immortel) (2010) [AVI | 320x136] <DVDRip>

в форуме Видео для смартфонов и КПК, Размер: 295.89 МБ, Здоровье: 100%

Anonymous

0
16|2

41
0

25 окт 2014, 23:12

Anonymous Перейти к последнему сообщению

В этой теме нет новых непрочитанных сообщений. Скачать торрент Проверен the GazettE - Tour 10 Nameless Liberty Six Bullets -01- [2010, J-rock, HDTV]

в форуме Концерты (HD-Video), Размер: 12.05 ГБ, Здоровье: 0%

Anonymous

0
0|0

1
0

23 окт 2016, 11:06

Anonymous Перейти к последнему сообщению



Сейчас этот форум просматривают: нет зарегистрированных пользователей и гости: 3


Вы не можете начинать темы
Вы не можете отвечать на сообщения
Вы не можете редактировать свои сообщения
Вы не можете удалять свои сообщения
Вы не можете добавлять вложения

Перейти:  

!ВНИМАНИЕ!
 Ресурс не предоставляет электронные версии произведений, а занимается лишь коллекционированием и каталогизацией ссылок, присылаемых и публикуемых на форуме нашими читателями. Если вы являетесь правообладателем какого-либо представленного материала и не желаете чтобы ссылка на него находилась в нашем каталоге, свяжитесь с нами и мы незамедлительно удалим её. Файлы для обмена на трекере предоставлены пользователями сайта, и администрация не несёт ответственности за их содержание. Просьба не заливать файлы, защищенные авторскими правами, а также файлы нелегального содержания!