На всех торрентах на трекере установлена скидка на скачивание в размере 100 процентов(а).
 Возможность скачивания торрента НЕ зависит от ограничений при низком ратио, низком аплоаде, требуемом ратио или требуемом аплоаде.


Начать новую тему Ответить на тему
Статистика раздачи
Размер: 6.16 ГБ | Добавлен: 05 ноя 2013, 06:28 | Скачали: 0
Сидеров: 0  [0 байт/сек]    Личеров: 0  [0 байт/сек]
Пред. тема | След. тема 

Автор
Сообщение

СообщениеДобавлено: 05 ноя 2013, 06:28 

Название: Мы такие, какие есть
Оригинальное название: We Are What We Are
Год выхода: 2013
Жанр: ужасы, триллер, драма
Режиссер: Джим Микл

В ролях: Кэсси ДеПайва, Лорен Рейто, Джулия Гарнер, Эмбир Чилдерс, Джек Гор, Билл Сейдж, Келли МакГиллис, Уайатт Расселл, Майкл Паркс, Аннемари Лоулесс

О фильме:
Казалось бы, обычная и доброжелательная семья Паркеров, всегда державшаяся особняком от остальных жителей городка, не могла бы привлечь к себе особого внимания, однако, в тихом омуте черти водятся. За закрытыми дверями, вспыльчивый глава семейства Фрэнк правит балом и хранит семейные секреты от посторонних глаз. Секреты, которые заставят содрогнуться от ужаса любого, кто прикоснется к ним..



Выпущено: США
Продолжительность: 01:45:09
Озвучивание: Любительское (многоголосое) [DeadSno & den904]
перевод на русский язык [kon2011]


Формат: MKV
Качество: BDRip 720p [EbP]
Видео: 7132 kb/s, 1280x536
Аудио: Russian: AC3, 448 kb/s (6 ch) / English: DTS, 1510 kb/s (6 ch)
Субтитры: English
Дополнительно: Сохранены оригинальные чаптеры как на Blu-Ray

Скачать: Сэмпл

Релиз группы:



General
We.Are.What.We.Are.2013.BDRip.720p.CINEMANIA.mkv
Format : Matroska
Format version : Version 4 / Version 2
File size : 6.16 GiB
Duration : 1h 45mn
Overall bit rate : 8 387 Kbps
Movie name : CINEMANIA.CC
Encoded date : UTC 2013-11-04 21:06:30
Writing application : mkvmerge v6.5.0 ('Isn't she lovely') built on Oct 20 2013 12:50:05
Writing library : libebml v1.3.0 + libmatroska v1.4.1

Video
ID : 1
Format : AVC
Format/Info : Advanced Video Codec
Format profile : High@L4.1
Format settings, CABAC : Yes
Format settings, ReFrames : 10 frames
Codec ID : V_MPEG4/ISO/AVC
Duration : 1h 45mn
Bit rate : 7 132 Kbps
Width : 1 280 pixels
Height : 536 pixels
Display aspect ratio : 2.40:1
Frame rate mode : Constant
Frame rate : 23.976 fps
Color space : YUV
Chroma subsampling : 4:2:0
Bit depth : 8 bits
Scan type : Progressive
Bits/(Pixel*Frame) : 0.434
Stream size : 5.24 GiB (85%)
Title : CINEMANIA.CC
Writing library : x264 core 135 r2345 f0c1c53
Encoding settings : cabac=1 / ref=10 / deblock=1:-3:-3 / analyse=0x3:0x113 / me=tesa / subme=10 / psy=1 / psy_rd=1.10:0.00 / mixed_ref=1 / me_range=16 / chroma_me=1 / trellis=2 / 8x8dct=1 / cqm=0 / deadzone=21,11 / fast_pskip=0 / chroma_qp_offset=-2 / threads=12 / lookahead_threads=2 / sliced_threads=0 / nr=0 / decimate=0 / interlaced=0 / bluray_compat=0 / constrained_intra=0 / bframes=8 / b_pyramid=2 / b_adapt=2 / b_bias=0 / direct=3 / weightb=1 / open_gop=0 / weightp=2 / keyint=250 / keyint_min=23 / scenecut=40 / intra_refresh=0 / rc=crf / mbtree=0 / crf=15.5 / qcomp=0.70 / qpmin=0 / qpmax=69 / qpstep=4 / ip_ratio=1.30 / pb_ratio=1.30 / aq=1:0.70 / zones=146344,151273,crf=30
Language : English
Default : Yes
Forced : No

Audio #1
ID : 2
Format : AC-3
Format/Info : Audio Coding 3
Mode extension : CM (complete main)
Format settings, Endianness : Big
Codec ID : A_AC3
Duration : 1h 45mn
Bit rate mode : Constant
Bit rate : 448 Kbps
Channel(s) : 6 channels
Channel positions : Front: L C R, Side: L R, LFE
Sampling rate : 48.0 KHz
Bit depth : 16 bits
Compression mode : Lossy
Stream size : 337 MiB (5%)
Title : DeadSno & den904
Language : Russian
Default : Yes
Forced : Yes

Audio #2
ID : 3
Format : AC-3
Format/Info : Audio Coding 3
Mode extension : CM (complete main)
Format settings, Endianness : Big
Codec ID : A_AC3
Duration : 1h 45mn
Bit rate mode : Constant
Bit rate : 640 Kbps
Channel(s) : 6 channels
Channel positions : Front: L C R, Side: L R, LFE
Sampling rate : 48.0 KHz
Bit depth : 16 bits
Compression mode : Lossy
Stream size : 481 MiB (8%)
Language : English
Default : No
Forced : No

Text
ID : 4
Format : UTF-8
Codec ID : S_TEXT/UTF8
Codec ID/Info : UTF-8 Plain Text
Language : English
Default : No
Forced : No

Menu
00:00:00.000 : en:00:00:00.000
00:05:21.363 : en:00:05:21.363
00:11:58.718 : en:00:11:58.718
00:16:00.960 : en:00:16:00.960
00:22:14.333 : en:00:22:14.333
00:29:52.791 : en:00:29:52.791
00:37:33.251 : en:00:37:33.251
00:41:58.516 : en:00:41:58.516
00:46:43.801 : en:00:46:43.801
00:53:49.226 : en:00:53:49.226
00:59:16.553 : en:00:59:16.553
01:09:25.161 : en:01:09:25.161
01:15:56.552 : en:01:15:56.552
01:19:59.795 : en:01:19:59.795
01:24:06.041 : en:01:24:06.041
01:31:22.477 : en:01:31:22.477
01:34:53.688 : en:01:34:53.688
01:40:10.004 : en:01:40:10.004
загрузка...
Правила, инструкции, FAQ!!!
Торрент  Добавлен [05 ноя 2013, 06:28] Скачать торрент
Скачать торрент
[ Размер 31.28 КБ / Просмотров 7 ]

Статус  
 
Размер  6.16 ГБ
Приватный: Нет (DHT включён)
.torrent скачан  0
Как залить торрент? | Как скачать Torrent? | Как смотреть и слушать онлайн?  


     Отправить личное сообщение
   
Страница 1 из 1
Показать сообщения за:  Поле сортировки  
Начать новую тему Ответить на тему

   Похожие торренты   Автор   Ответы   Просмотры   Последнее сообщение 
В этой теме нет новых непрочитанных сообщений. Скачать торрент Проверен Mylene Farmer: Timeless 2013 - Le Film (2013) BDRip 720p

в форуме Концерты (HD-Video), Размер: 4.37 ГБ, Здоровье: 100%

Anonymous

0
511|2

118
7

18 сен 2014, 20:07

Anonymous Перейти к последнему сообщению

В этой теме нет новых непрочитанных сообщений. Скачать торрент Она / Her (2013) BDRip 720p | L, A

в форуме 720p | 1080p, Размер: 10.41 ГБ, Здоровье: 0%

Anonymous

0
0|0

37
0

04 май 2014, 09:26

Anonymous Перейти к последнему сообщению

В этой теме нет новых непрочитанных сообщений. Скачать торрент Проверен Эли / Heli (2013) BDRip 720p

в форуме 720p | 1080p, Размер: 3.61 ГБ, Здоровье: 100%

Гость

0
142|43

51
219

05 янв 2015, 22:31

Гость Перейти к последнему сообщению

В этой теме нет новых непрочитанных сообщений. Лок / Locke (2013) BDRip 720p | L1

в форуме Новинки кино, Размер: 4.25 ГБ, Здоровье: 100%

Anonymous

0
77|0

193
4132

01 авг 2014, 21:49

Anonymous Перейти к последнему сообщению

В этой теме нет новых непрочитанных сообщений. Скачать торрент РЭД 2 / Red 2 (2013) BDRip 720p | Лицензия

в форуме 720p | 1080p, Размер: 2.96 ГБ, Здоровье: 100%

Anonymous

0
20|1

80
0

20 дек 2013, 08:52

Anonymous Перейти к последнему сообщению



Сейчас этот форум просматривают: нет зарегистрированных пользователей и гости: 1


Вы не можете начинать темы
Вы не можете отвечать на сообщения
Вы не можете редактировать свои сообщения
Вы не можете удалять свои сообщения
Вы не можете добавлять вложения

Перейти:  

!ВНИМАНИЕ!
 Ресурс не предоставляет электронные версии произведений, а занимается лишь коллекционированием и каталогизацией ссылок, присылаемых и публикуемых на форуме нашими читателями. Если вы являетесь правообладателем какого-либо представленного материала и не желаете чтобы ссылка на него находилась в нашем каталоге, свяжитесь с нами и мы незамедлительно удалим её. Файлы для обмена на трекере предоставлены пользователями сайта, и администрация не несёт ответственности за их содержание. Просьба не заливать файлы, защищенные авторскими правами, а также файлы нелегального содержания!