На всех торрентах на трекере установлена скидка на скачивание в размере 100 процентов(а).
 Возможность скачивания торрента НЕ зависит от ограничений при низком ратио, низком аплоаде, требуемом ратио или требуемом аплоаде.


Начать новую тему Ответить на тему
Статистика раздачи
Размер: 7.95 ГБ | Добавлен: 04 ноя 2013, 16:40 | Скачали: 2
Сидеров: 10  [0 байт/сек]    Личеров: 2  [0 байт/сек]
Пред. тема | След. тема 

Автор
Сообщение

СообщениеДобавлено: 04 ноя 2013, 16:40 

Название: Без изъяна
Оригинальное название: Flawless
Год выхода: 2007
Жанр: Триллер, драма, криминал
Режиссер: Майкл Рэдфорд

В ролях: Деми Мур, Майкл Кейн, Ламбер Вильсон, Натаниель Паркер, Шогэн Сеймур, Николас Джонс, Дэвид Баррас, Джосс Экленд, Сайлас Карсон, Деррен Несбитт

О фильме:
Действие картины разворачивается в Лондоне образца 1960-го года. Майкл Кейн играет привратника, задумавшего обчистить ювелирную компанию, в которой он, собственно говоря, и трудоустроен. Он находит себе сообщницу в лице управляющей из Америки (Мур), которая помогает ему продумать и организовать всю операцию…

Выпущено: Великобритания, Люксембург / Blue Rider Entertainment, Delux Productions, Film Fund Luxembourg, Future Films, Hyde Park International, Magnolia Pictures, Pierce/Williams Entertainment, Zero Gravity Management
Продолжительность: 01:48:43
Перевод: Профессиональный многоголосый

Кодек: MPEG-4 AVC
Качество: BDRip 1080p
Видео: 1920x816 23,976 fps, 9445 kbps
Звук:
Russian: AC3, 384 Kbps (2 ch) Профессиональный многоголосый (Телеканал Россия)
English: AC3, 640 Kbps (6 ch) Original
Субтитры: English
Семпл
Уникальный идентификатор : 208713036994968043613741324204717877630 (0x9D04AB34B974648EA43172AC8CEFA97E)
Полное имя : D:torrentFlawless.2007.х264.BDRip.1080р.mkv
Формат : Matroska
Версия формата : Version 4 / Version 2
Размер файла : 7,95 Гбайт
Продолжительность : 1 ч. 48 м.
Общий поток : 10,5 Мбит/сек
Название фильма : ☭WIDDER☭
Дата кодирования : UTC 2013-11-04 10:20:43
Программа кодирования : mkvmerge v6.3.0 ('You can't stop me!') built on Jun 28 2013 20:09:41
Библиотека кодирования : libebml v1.3.0 + libmatroska v1.4.0

Видео
Идентификатор : 1
Формат : AVC
Формат/Информация : Advanced Video Codec
Профиль формата : High@L4.1
Параметр CABAC формата : Да
Параметр ReFrames формата : 5 кадров
Идентификатор кодека : V_MPEG4/ISO/AVC
Продолжительность : 1 ч. 48 м.
Битрейт : 9445 Кбит/сек
Ширина : 1920 пикселей
Высота : 816 пикселей
Соотношение сторон : 2,35:1
Режим частоты кадров : Постоянный
Частота кадров : 23,976 кадра/сек
Цветовое пространство : YUV
Субдискретизация насыщенности : 4:2:0
Битовая глубина : 8 бит
Тип развёртки : Прогрессивная
Бит/(Пиксели*Кадры) : 0.251
Размер потока : 7,01 Гбайт (88%)
Заголовок : Без изъяна / Flawless (2007)
Библиотека кодирования : x264 core 140 r2377 1ca7bb9
Настройки программы : cabac=1 / ref=5 / deblock=1:-3:-3 / analyse=0x3:0x133 / me=umh / subme=11 / psy=1 / psy_rd=1.00:0.00 / mixed_ref=1 / me_range=48 / chroma_me=1 / trellis=2 / 8x8dct=1 / cqm=0 / deadzone=21,11 / fast_pskip=0 / chroma_qp_offset=-2 / threads=12 / lookahead_threads=1 / sliced_threads=0 / nr=0 / decimate=1 / interlaced=0 / bluray_compat=0 / constrained_intra=0 / bframes=6 / b_pyramid=2 / b_adapt=2 / b_bias=0 / direct=3 / weightb=1 / open_gop=0 / weightp=2 / keyint=230 / keyint_min=22 / scenecut=40 / intra_refresh=0 / rc_lookahead=60 / rc=2pass / mbtree=0 / bitrate=9445 / ratetol=1.0 / qcomp=0.60 / qpmin=0 / qpmax=69 / qpstep=4 / cplxblur=20.0 / qblur=0.5 / vbv_maxrate=50000 / vbv_bufsize=62500 / nal_hrd=none / filler=0 / ip_ratio=1.40 / pb_ratio=1.30 / aq=2:0.80
Язык : English
Default : Да
Forced : Нет

Аудио #1
Идентификатор : 2
Формат : AC-3
Формат/Информация : Audio Coding 3
Профиль формата : Dolby Digital
Расширение режима : CM (complete main)
Параметр Endianness формата : Big
Идентификатор кодека : A_AC3
Продолжительность : 1 ч. 48 м.
Вид битрейта : Постоянный
Битрейт : 384 Кбит/сек
Каналы : 2 канала
Расположение каналов : Front: L R
Частота : 48,0 КГц
Битовая глубина : 16 бит
Метод сжатия : С потерями
Размер потока : 299 Мбайт (4%)
Заголовок : Russian: AC3, 384 Kbps (2 ch) Профессиональный многоголосый
Язык : Russian
Default : Да
Forced : Нет

Аудио #2
Идентификатор : 3
Формат : AC-3
Формат/Информация : Audio Coding 3
Расширение режима : CM (complete main)
Параметр Endianness формата : Big
Идентификатор кодека : A_AC3
Продолжительность : 1 ч. 48 м.
Вид битрейта : Постоянный
Битрейт : 640 Кбит/сек
Каналы : 6 каналов
Расположение каналов : Front: L C R, Side: L R, LFE
Частота : 48,0 КГц
Битовая глубина : 16 бит
Метод сжатия : С потерями
Размер потока : 498 Мбайт (6%)
Заголовок : AC3, 640 Kbps (6 ch) Original
Язык : English
Default : Нет
Forced : Нет

Текст
Идентификатор : 4
Формат : UTF-8
Идентификатор кодека : S_TEXT/UTF8
Идентификатор кодека/Информация : UTF-8 Plain Text
Язык : English
Default : Нет
Forced : Нет

Меню
00:00:00.000 : :Chapter 01
00:06:25.760 : :Chapter 02
00:10:28.753 : :Chapter 03
00:17:18.037 : :Chapter 04
00:21:37.796 : :Chapter 05
00:27:19.679 : :Chapter 06
00:32:31.115 : :Chapter 07
00:38:58.794 : :Chapter 08
00:43:49.168 : :Chapter 09
00:48:47.841 : :Chapter 10
00:54:12.332 : :Chapter 11
00:59:18.429 : :Chapter 12
01:04:54.307 : :Chapter 13
01:11:43.132 : :Chapter 14
01:16:02.808 : :Chapter 15
01:21:22.878 : :Chapter 16
01:28:08.491 : :Chapter 17
01:32:31.212 : :Chapter 18
01:38:01.876 : :Chapter 19
01:42:38.318 : :Chapter 20
01:48:42.432 : :Chapter 21

____________________________________________
x264 [info]: frame I:1540 Avg QP:14.90 size:171028
x264 [info]: frame P:31439 Avg QP:17.26 size: 87346
x264 [info]: frame B:123430 Avg QP:19.35 size: 37971
x264 [info]: consecutive B-frames: 1.9% 1.7% 5.6% 12.3% 14.0% 57.4% 7.1%




Релиз от:
загрузка...
Правила, инструкции, FAQ!!!
Торрент  Добавлен [04 ноя 2013, 16:40] Скачать торрент
Скачать торрент
[ Размер 40.16 КБ / Просмотров 8 ]

Статус  
 
Размер  7.95 ГБ
Приватный: Нет (DHT включён)
.torrent скачан  2
Как залить торрент? | Как скачать Torrent? | Как смотреть и слушать онлайн?  


     Отправить личное сообщение
   
Страница 1 из 1
Показать сообщения за:  Поле сортировки  
Начать новую тему Ответить на тему

   Похожие торренты   Автор   Ответы   Просмотры   Последнее сообщение 
В этой теме нет новых непрочитанных сообщений. Скачать торрент Проверен Без изъяна / Flawless (2007) BDRip 720p | P

в форуме 720p | 1080p, Размер: 2.91 ГБ, Здоровье: 100%

Anonymous

0
184|74

47
216

27 мар 2015, 18:49

Anonymous Перейти к последнему сообщению

В этой теме нет новых непрочитанных сообщений. Скачать торрент Проверен Кука (2007) BDRip 1080p

в форуме 720p | 1080p, Размер: 4.36 ГБ, Здоровье: 100%

Anonymous

0
53|6

25
375

26 сен 2014, 16:47

Anonymous Перейти к последнему сообщению

В этой теме нет новых непрочитанных сообщений. Скачать торрент Проверен Наркоз / Awake (2007) BDRip 1080p

в форуме 720p | 1080p, Размер: 7.91 ГБ, Здоровье: 100%

Гость

0
42|3

34
271

06 фев 2015, 22:07

Гость Перейти к последнему сообщению

В этой теме нет новых непрочитанных сообщений. Скачать торрент Проверен Паранойя / Disturbia (2007) BDRip 1080p

в форуме 720p | 1080p, Размер: 14.98 ГБ, Здоровье: 50%

Гость

0
2|4

226
0

17 окт 2015, 18:37

Гость Перейти к последнему сообщению

В этой теме нет новых непрочитанных сообщений. Скачать торрент Проверен Вторжение / The Invasion (2007) BDRip 1080p

в форуме 720p | 1080p, Размер: 8.4 ГБ, Здоровье: 0%

Anonymous

0
0|0

38
1

10 дек 2014, 19:09

Anonymous Перейти к последнему сообщению



Сейчас этот форум просматривают: нет зарегистрированных пользователей и гости: 2


Вы не можете начинать темы
Вы не можете отвечать на сообщения
Вы не можете редактировать свои сообщения
Вы не можете удалять свои сообщения
Вы не можете добавлять вложения

Перейти:  

!ВНИМАНИЕ!
 Ресурс не предоставляет электронные версии произведений, а занимается лишь коллекционированием и каталогизацией ссылок, присылаемых и публикуемых на форуме нашими читателями. Если вы являетесь правообладателем какого-либо представленного материала и не желаете чтобы ссылка на него находилась в нашем каталоге, свяжитесь с нами и мы незамедлительно удалим её. Файлы для обмена на трекере предоставлены пользователями сайта, и администрация не несёт ответственности за их содержание. Просьба не заливать файлы, защищенные авторскими правами, а также файлы нелегального содержания!