На всех торрентах на трекере установлена скидка на скачивание в размере 100 процентов(а).
 Возможность скачивания торрента НЕ зависит от ограничений при низком ратио, низком аплоаде, требуемом ратио или требуемом аплоаде.


Начать новую тему Ответить на тему
Статистика раздачи
Размер: 2.73 ГБ | Добавлен: 04 ноя 2013, 16:30 | Скачали: 0
Сидеров: 0  [0 байт/сек]    Личеров: 0  [0 байт/сек]
Пред. тема | След. тема 

Автор
Сообщение

СообщениеДобавлено: 04 ноя 2013, 16:30 

Название: Новичок
Оригинальное название: The Rookie
Год выхода: 1990
Жанр: Боевик, триллер, драма, комедия, криминал
Режиссер: Клинт Иствуд

В ролях: Клинт Иствуд, Чарли Шин, Рауль Хулиа, Соня Брага, Том Скерритт, Лара Флинн Бойл, Пепе Серна, Марко Родригес, Пит Рэндалл, Донна Митчелл

О фильме:
Детективу из Лос-Анджелеса, занимающемуся угонами дорогих машин Нику Пуловски после гибели его напарника дают в помощники новичка — Дэвида Аккермана. Дэвид — вполне благополучный юноша из богатой семьи, окончивший университет, в детстве стал невольным виновником гибели брата. Он испытывает страх и угрызения совести. Переплет, в который они с Ником попадают, преследуя главаря банды угонщиков Строма, заставляют его побороть страх. Рискуя жизнью, Дэвид в одиночку идет на выручку Нику, которого Стром взял в заложники. Он не только помогает Нику избежать гибели, но вдвоем они расправляются с бандой и ее главарем…



Страна: США
Студия: Kazanjian/Siebert Productions, Malpaso Productions, Warner Bros. Pictures Co.
Продолжительность: 02:00:45
Перевод: Дублированный, профессиональный (многоголосый закадровый), авторский (одноголосый закадровый)


Кодек: h.264
Качество: BDRip-AVC
Видео: 1888 Кбит/с, 1024х430, 23.976 кадр/с

Звук:
• №1: Русский (AC3, 2 ch, 192 Кбит/с) Дублированный [Варус-Видео]
• №2: Русский (AC3, 6 ch, 384 Кбит/с) Профессиональный многоголосый [Варус-Видео]
• №3: Русский (AC3, 6 ch, 384 Кбит/с) Авторский одноголосый [Андрей Гаврилов]
• №4: Английский (АС3, 6 ch, 384 Кбит/с)

Субтитры: Русские, английские

----------------------------------------------------------------------
x264 [info]: frame I:1315 Avg QP:15.55 size: 57856
x264 [info]: frame P:38784 Avg QP:18.63 size: 20493
x264 [info]: frame B:133618 Avg QP:21.01 size: 6279
----------------------------------------------------------------------

Полное имя : The.Rookie.1990.x264.BDRip.(AVC).0ptimus.mkv
Формат : Matroska
Версия формата : Version 4 / Version 2
Размер файла : 2,73 Гбайт
Продолжительность : 2 ч. 0 м.
Общий поток : 3233 Кбит/сек
Название фильма : Новичок | The Rookie [1990] -=BDRip (AVC) by 0ptimus=-
Дата кодирования : UTC 2013-11-04 06:48:56
Программа кодирования : mkvmerge v6.1.0 ('Old Devil') built on Mar 2 2013 14:32:37
Библиотека кодирования : libebml v1.3.0 + libmatroska v1.4.0

Видео
Идентификатор : 1
Формат : AVC
Формат/Информация : Advanced Video Codec
Профиль формата : High@L4.1
Параметр CABAC формата : Да
Параметр ReFrames формата : 8 кадров
Идентификатор кодека : V_MPEG4/ISO/AVC
Продолжительность : 2 ч. 0 м.
Битрейт : 1888 Кбит/сек
Ширина : 1024 пикселя
Высота : 430 пикселей
Соотношение сторон : 2,40:1
Частота кадров : 23,976 кадра/сек
Цветовое пространство : YUV
Субдискретизация насыщенности : 4:2:0
Битовая глубина : 8 бит
Тип развёртки : Прогрессивная
Бит/(Пиксели*Кадры) : 0.179
Размер потока : 1,54 Гбайт (56%)
Заголовок : Rip by 0ptimus
Библиотека кодирования : x264 core 133 r2334 a3ac64b
Настройки программы : cabac=1 / ref=8 / deblock=1:-3:-3 / analyse=0x3:0x113 / me=umh / subme=11 / psy=1 / psy_rd=1.00:0.20 / mixed_ref=1 / me_range=32 / chroma_me=1 / trellis=2 / 8x8dct=1 / cqm=0 / deadzone=21,11 / fast_pskip=0 / chroma_qp_offset=-3 / threads=3 / lookahead_threads=1 / sliced_threads=0 / nr=0 / decimate=0 / interlaced=0 / bluray_compat=0 / constrained_intra=0 / bframes=10 / b_pyramid=2 / b_adapt=2 / b_bias=0 / direct=3 / weightb=1 / open_gop=0 / weightp=2 / keyint=240 / keyint_min=23 / scenecut=40 / intra_refresh=0 / rc_lookahead=40 / rc=2pass / mbtree=0 / bitrate=1888 / ratetol=1.0 / qcomp=0.60 / qpmin=0 / qpmax=69 / qpstep=4 / cplxblur=20.0 / qblur=0.5 / vbv_maxrate=50000 / vbv_bufsize=50000 / nal_hrd=none / ip_ratio=1.40 / pb_ratio=1.30 / aq=1:1.00
Язык : English

Аудио #1
Идентификатор : 2
Формат : AC-3
Формат/Информация : Audio Coding 3
Расширение режима : CM (complete main)
Идентификатор кодека : A_AC3
Продолжительность : 2 ч. 0 м.
Вид битрейта : Постоянный
Битрейт : 192 Кбит/сек
Каналы : 2 канала
Расположение каналов : Front: L R
Частота : 48,0 КГц
Битовая глубина : 16 бит
Метод сжатия : С потерями
Размер потока : 166 Мбайт (6%)
Заголовок : Дублированный [Варус-Видео] AC3 2.0 @ 192 kbps
Язык : Russian

Аудио #2
Идентификатор : 3
Формат : AC-3
Формат/Информация : Audio Coding 3
Расширение режима : CM (complete main)
Идентификатор кодека : A_AC3
Продолжительность : 2 ч. 0 м.
Вид битрейта : Постоянный
Битрейт : 384 Кбит/сек
Каналы : 6 каналов
Расположение каналов : Front: L C R, Side: L R, LFE
Частота : 48,0 КГц
Битовая глубина : 16 бит
Метод сжатия : С потерями
Размер потока : 332 Мбайт (12%)
Заголовок : Многоголосый закадровый [Варус-Видео] AC3 5.1 @ 384 kbps
Язык : Russian

Аудио #3
Идентификатор : 4
Формат : AC-3
Формат/Информация : Audio Coding 3
Расширение режима : CM (complete main)
Идентификатор кодека : A_AC3
Продолжительность : 2 ч. 0 м.
Вид битрейта : Постоянный
Битрейт : 384 Кбит/сек
Каналы : 6 каналов
Расположение каналов : Front: L C R, Side: L R, LFE
Частота : 48,0 КГц
Битовая глубина : 16 бит
Метод сжатия : С потерями
Размер потока : 332 Мбайт (12%)
Заголовок : Авторский [Андрей Гаврилов] AC3 5.1 @ 384 kbps
Язык : Russian

Аудио #4
Идентификатор : 5
Формат : AC-3
Формат/Информация : Audio Coding 3
Расширение режима : CM (complete main)
Идентификатор кодека : A_AC3
Продолжительность : 2 ч. 0 м.
Вид битрейта : Постоянный
Битрейт : 384 Кбит/сек
Каналы : 6 каналов
Расположение каналов : Front: L C R, Side: L R, LFE
Частота : 48,0 КГц
Битовая глубина : 16 бит
Метод сжатия : С потерями
Размер потока : 332 Мбайт (12%)
Заголовок : AC3 5.1 @ 384 kbps
Язык : English

Текст #1
Идентификатор : 6
Формат : UTF-8
Идентификатор кодека : S_TEXT/UTF8
Идентификатор кодека/Информация : UTF-8 Plain Text
Язык : Russian

Текст #2
Идентификатор : 7
Формат : UTF-8
Идентификатор кодека : S_TEXT/UTF8
Идентификатор кодека/Информация : UTF-8 Plain Text
Язык : English

Меню
00:00:00.000 : :Caught in a Lie
00:02:28.356 : :Grand Theft Autio
00:07:25.736 : :The Tooth Fairy
00:11:15.131 : :Freeway Speedway
00:15:22.254 : :Nick's New Partner
00:17:39.016 : :Lunch Aftertaste
00:21:30.038 : :Looking Over His Shoulder
00:24:12.324 : :Something's Gonna Happen
00:25:40.538 : :Where the Fun Starts
00:29:44.949 : :Junkyard Persuasion
00:34:10.089 : :Nick's Wheels
00:38:12.540 : :No Guarantee
00:43:34.152 : :Morales Goes For a Ride
00:47:15.873 : :Ain't Gonna Lose This One
00:50:10.090 : :Foiled Heist
00:54:22.425 : :Improvised Hostage
00:56:57.997 : :Stop Being Scared
00:59:31.150 : :Go With a Bang
01:01:09.290 : :Ackerman Fired Up
01:06:31.445 : :Where He Wants Them
01:08:36.362 : :Taken at the Cleaners
01:12:25.299 : :Through Making Mistakes
01:15:03.916 : :Biting Liesl's Bullet
01:20:47.841 : :Sarah in Danger
01:25:18.238 : :Next Time the Kneecaps
01:27:58.273 : :No Getaway For Max
01:30:31.634 : :Shooting the Works
01:33:29.770 : :Fasten Your Seat Belt
01:37:09.573 : :Pickup - and Detour
01:43:00.883 : :Runway Mayhem
01:46:49.528 : :Terminal Terror
01:49:07.707 : :The Amateur's End
01:50:08.977 : :Not One Good Reason
01:54:04.420 : :David's New Partner
01:56:58.094 : :End Credits
02:00:45.321 : :End




Релиз от:
загрузка...
Правила, инструкции, FAQ!!!
Торрент  Добавлен [04 ноя 2013, 16:30] Скачать торрент
Скачать торрент
[ Размер 27.85 КБ / Просмотров 15 ]

Статус  
 
Размер  2.73 ГБ
Приватный: Нет (DHT включён)
.torrent скачан  0
Как залить торрент? | Как скачать Torrent? | Как смотреть и слушать онлайн?  


     Отправить личное сообщение
   
Страница 1 из 1
Показать сообщения за:  Поле сортировки  
Начать новую тему Ответить на тему

   Похожие торренты   Автор   Ответы   Просмотры   Последнее сообщение 
В этой теме нет новых непрочитанных сообщений. Скачать торрент Проверен [Digital Tutors] Rookie Mistakes to Avoid as a Motion Designer [2013, ENG]

в форуме Работа с видео, Размер: 890.32 МБ, Здоровье: 0%

Anonymous

0
0|0

2
0

19 авг 2016, 22:59

Anonymous Перейти к последнему сообщению

В этой теме нет новых непрочитанных сообщений. Скачать торрент Проверен Александp Новиков | Новичок SEO-шник 2.0 (2014) PCRec

в форуме Интерактивные обучающие и развивающие материалы, Размер: 2.67 ГБ, Здоровье: 100%

Anonymous

0
79|4

38
9

28 дек 2015, 22:42

Anonymous Перейти к последнему сообщению

В этой теме нет новых непрочитанных сообщений. Скачать торрент Проверен Александр Новиков | Новичок SEO-шник + бонус (2011) [PCRec]

в форуме Видеокурсы, Размер: 2.02 ГБ, Здоровье: 100%

Anonymous

0
19|6

114
3

24 май 2014, 14:14

Anonymous Перейти к последнему сообщению

В этой теме нет новых непрочитанных сообщений. Скачать торрент Эйр Америка / Air America (1990) BDRip

в форуме Боевики, Размер: 2.18 ГБ, Здоровье: 100%

Anonymous

0
3|0

55
157

06 апр 2014, 12:34

Anonymous Перейти к последнему сообщению

В этой теме нет новых непрочитанных сообщений. Скачать торрент Проверен Привидение / Ghost (1990) BDRip-AVC | P, A

в форуме Триллеры, Размер: 4.01 ГБ, Здоровье: 100%

Гость

0
12|2

356
22

15 ноя 2015, 23:55

Гость Перейти к последнему сообщению



Сейчас этот форум просматривают: нет зарегистрированных пользователей и гости: 1


Вы не можете начинать темы
Вы не можете отвечать на сообщения
Вы не можете редактировать свои сообщения
Вы не можете удалять свои сообщения
Вы не можете добавлять вложения

Перейти:  

!ВНИМАНИЕ!
 Ресурс не предоставляет электронные версии произведений, а занимается лишь коллекционированием и каталогизацией ссылок, присылаемых и публикуемых на форуме нашими читателями. Если вы являетесь правообладателем какого-либо представленного материала и не желаете чтобы ссылка на него находилась в нашем каталоге, свяжитесь с нами и мы незамедлительно удалим её. Файлы для обмена на трекере предоставлены пользователями сайта, и администрация не несёт ответственности за их содержание. Просьба не заливать файлы, защищенные авторскими правами, а также файлы нелегального содержания!