На всех торрентах на трекере установлена скидка на скачивание в размере 100 процентов(а).
 Возможность скачивания торрента НЕ зависит от ограничений при низком ратио, низком аплоаде, требуемом ратио или требуемом аплоаде.


Начать новую тему Ответить на тему
Статистика раздачи
Размер: 2.52 ГБ | Добавлен: 04 ноя 2013, 00:31 | Скачали: 0
Сидеров: 0  [0 байт/сек]    Личеров: 0  [0 байт/сек]
Пред. тема | След. тема 

Автор
Сообщение

СообщениеДобавлено: 04 ноя 2013, 00:31 

Белый клык 2: Легенда о белом волке / White Fang 2: Myth of the White Wolf (1994) DVDRip [H.264]

Год выпуска: 1994
Жанр: Приключения, Семейный
Выпущено: Walt Disney Pictures

Описание фильма:
На Диком Западе издавна существовала легенда о белом волке. Никто не мог разгадать этот миф. Но когда древнее индейское племя попало в беду, и золотоискатель Генри со своим псом по кличке Белый Клык встал на его защиту, таинственное предание воплощается в реальность…

Режиссер: Кен Олин
Актеры: Скотт Бэйрстоу, Чармэйн Крэйг, Аль Хэррингтон, Энтони Руйвивар, Виктория Расимо, Альфред Молина, Пол Койер, Джеффри Льюис, Мэттью Коулз, Вудроу В. Моррисон

Продолжительность: 01:46:07

Перевод: Многоголосый закадровый (ОРТ), Авторский (Михалев)
Субтитры: Отсутствуют



Дата мировой премьеры: 15 апреля 1994
Рейтинг MPAA: RG Рекомендовано присутствие родителей

Качество видео: DVDRip

Видео: AVC, 1024x568 (16:9), 23.976 fps, 2 563 Kbps (0.184 bit/pixel)
Аудио #1: AC-3, 48.0 KHz, 6 ch, 448 Kbps, CBR (ОРТ)
Аудио #2: AC-3, 48.0 KHz, 2 ch, 192 Kbps, CBR (Михалев)
Аудио #3: AC-3, 48.0 KHz, 2 ch, 192 Kbps, CBR (Оригинал)
В озвучке от ОРТ отсутствует звук на первых 45- секундах, но там существенного ничего не происходит. К сожалению другой дорожки не нашел
Полное имя : H:\кино\Downloads\White_Fang_2_(1994)_DVDRip.mkv
Формат : Matroska
Версия формата : Version 4 / Version 2
Размер файла : 2,52 Гбайт
Продолжительность : 1 ч. 46 м.
Общий поток : 3396 Кбит/сек
Название фильма : White_Fang_2
Дата кодирования : UTC 2010-02-22 21:41:31
Программа кодирования : mkvmerge v5.8.0 ('No Sleep / Pillow') built on Nov 13 2012 19:43:22
Библиотека кодирования : libebml v1.3.0 + libmatroska v1.4.0

Видео
Идентификатор : 1
Формат : AVC
Формат/Информация : Advanced Video Codec
Профиль формата :
Параметр CABAC формата : Да
Параметр ReFrames формата : 4 кадра
Режим смешивания : Header stripping
Идентификатор кодека : V_MPEG4/ISO/AVC
Продолжительность : 1 ч. 46 м.
Битрейт : 2563 Кбит/сек
Ширина : 1024 пикселя
Высота : 568 пикселей
Соотношение сторон : 16:9
Частота кадров : 23,976 кадра/сек
Цветовое пространство : YUV
Субдискретизация насыщенности : 4:2:0
Битовая глубина : 8 бит
Тип развёртки : Прогрессивная
Бит/(Пиксели*Кадры) : 0.184
Размер потока : 1,85 Гбайт (74%)
Библиотека кодирования : x264 core 125 r2208 d9d2288
Настройки программы : cabac=1 / ref=3 / deblock=1:-1:-1 / analyse=0x3:0x113 / me=hex / subme=8 / psy=1 / psy_rd=1.00:0.20 / mixed_ref=1 / me_range=16 / chroma_me=1 / trellis=1 / 8x8dct=1 / cqm=0 / deadzone=21,11 / fast_pskip=1 / chroma_qp_offset=-3 / threads=3 / lookahead_threads=1 / sliced_threads=0 / nr=0 / decimate=0 / interlaced=0 / bluray_compat=0 / constrained_intra=0 / bframes=3 / b_pyramid=2 / b_adapt=1 / b_bias=0 / direct=3 / weightb=1 / open_gop=0 / weightp=2 / keyint=250 / keyint_min=23 / scenecut=40 / intra_refresh=0 / rc_lookahead=40 / rc=2pass / mbtree=1 / bitrate=2563 / ratetol=1.0 / qcomp=0.60 / qpmin=0 / qpmax=69 / qpstep=4 / cplxblur=20.0 / qblur=0.5 / vbv_maxrate=50000 / vbv_bufsize=50000 / nal_hrd=none / ip_ratio=1.40 / aq=1:1.00
Default : Да
Forced : Нет

Аудио #1
Идентификатор : 2
Формат : AC-3
Формат/Информация : Audio Coding 3
Расширение режима : CM (complete main)
Параметр Endianness формата : Big
Режим смешивания : Header stripping
Идентификатор кодека : A_AC3
Продолжительность : 1 ч. 46 м.
Вид битрейта : Постоянный
Битрейт : 448 Кбит/сек
Каналы : 6 каналов
Расположение каналов : Front: L C R, Side: L R, LFE
Частота : 48,0 КГц
Битовая глубина : 16 бит
Метод сжатия : С потерями
Размер потока : 340 Мбайт (13%)
Заголовок : ОРТ (многоголосый, закадровый) 5.1
Язык : Russian
Default : Нет
Forced : Да

Аудио #2
Идентификатор : 3
Формат : AC-3
Формат/Информация : Audio Coding 3
Расширение режима : CM (complete main)
Параметр Endianness формата : Big
Режим смешивания : Header stripping
Идентификатор кодека : A_AC3
Продолжительность : 1 ч. 46 м.
Вид битрейта : Постоянный
Битрейт : 192 Кбит/сек
Каналы : 2 канала
Расположение каналов : Front: L R
Частота : 48,0 КГц
Битовая глубина : 16 бит
Метод сжатия : С потерями
Размер потока : 146 Мбайт (6%)
Заголовок : (Михалев)
Default : Нет
Forced : Нет

Аудио #3
Идентификатор : 4
Формат : AC-3
Формат/Информация : Audio Coding 3
Расширение режима : CM (complete main)
Параметр Endianness формата : Big
Режим смешивания : Header stripping
Идентификатор кодека : A_AC3
Продолжительность : 1 ч. 46 м.
Вид битрейта : Постоянный
Битрейт : 192 Кбит/сек
Каналы : 2 канала
Расположение каналов : Front: L R
Частота : 48,0 КГц
Битовая глубина : 16 бит
Метод сжатия : С потерями
Размер потока : 146 Мбайт (6%)
Заголовок : Original
Default : Да
Forced : Нет
Скриншоты


загрузка...
Правила, инструкции, FAQ!!!
Торрент  Добавлен [04 ноя 2013, 00:31] Скачать торрент
Скачать торрент
[ Размер 13.37 КБ / Просмотров 9 ]

Статус  
 
Размер  2.52 ГБ
Приватный: Нет (DHT включён)
.torrent скачан  0
Как залить торрент? | Как скачать Torrent? | Как смотреть и слушать онлайн?  


     Отправить личное сообщение
   
Страница 1 из 1
Показать сообщения за:  Поле сортировки  
Начать новую тему Ответить на тему

   Похожие торренты   Автор   Ответы   Просмотры   Последнее сообщение 
В этой теме нет новых непрочитанных сообщений. Скачать торрент Ледяной адреналин (Белый полёт) / White Air (Вольфган Вагенкнехт) [2007 г., боевик, драма, спорт, DVDRip]

в форуме Боевики, Размер: 697.38 МБ, Здоровье: 100%

Anonymous

0
35|4

123
3

13 фев 2014, 06:34

Anonymous Перейти к последнему сообщению

В этой теме нет новых непрочитанных сообщений. Скачать торрент Проверен (Avantgarde / Instrumental Rock / New Age) Белый Острог (White Fort | Two Siberians) - Дискография, 17 релизов - 1994-2013, MP3, 128-320 kbps

в форуме Русский Рок, Размер: 1.9 ГБ, Здоровье: 0%

Anonymous

0
0|0

0
0

23 авг 2016, 00:57

Anonymous Перейти к последнему сообщению

В этой теме нет новых непрочитанных сообщений. Скачать торрент В белом плену / Into the White / Comrade (2012) BDRip 720p | P, A

в форуме 720p | 1080p, Размер: 5.52 ГБ, Здоровье: 0%

Anonymous

0
0|0

97
28

05 апр 2014, 22:08

Anonymous Перейти к последнему сообщению

В этой теме нет новых непрочитанных сообщений. Скачать торрент В белом плену / Снежная тюрьма / Into the White (2012) BDRip 1080p

в форуме 720p | 1080p, Размер: 5.76 ГБ, Здоровье: 100%

Anonymous

0
15|0

63
101

05 апр 2014, 22:18

Anonymous Перейти к последнему сообщению

В этой теме нет новых непрочитанных сообщений. Скачать торрент Черно-белый секс / Black & White & Sex (2012) DVB | P

в форуме Драмы, Мелодрамы, Размер: 1.52 ГБ, Здоровье: ???%

Anonymous

0
0|3

25
0

14 апр 2014, 22:09

Anonymous Перейти к последнему сообщению



Сейчас этот форум просматривают: нет зарегистрированных пользователей и гости: 1


Вы не можете начинать темы
Вы не можете отвечать на сообщения
Вы не можете редактировать свои сообщения
Вы не можете удалять свои сообщения
Вы не можете добавлять вложения

Перейти:  

!ВНИМАНИЕ!
 Ресурс не предоставляет электронные версии произведений, а занимается лишь коллекционированием и каталогизацией ссылок, присылаемых и публикуемых на форуме нашими читателями. Если вы являетесь правообладателем какого-либо представленного материала и не желаете чтобы ссылка на него находилась в нашем каталоге, свяжитесь с нами и мы незамедлительно удалим её. Файлы для обмена на трекере предоставлены пользователями сайта, и администрация не несёт ответственности за их содержание. Просьба не заливать файлы, защищенные авторскими правами, а также файлы нелегального содержания!