На всех торрентах на трекере установлена скидка на скачивание в размере 100 процентов(а).
 Возможность скачивания торрента НЕ зависит от ограничений при низком ратио, низком аплоаде, требуемом ратио или требуемом аплоаде.


Начать новую тему Ответить на тему
Статистика раздачи
Размер: 3.72 ГБ | Добавлен: 03 ноя 2013, 18:14 | Скачали: 0
Сидеров: 0  [0 байт/сек]    Личеров: 0  [0 байт/сек]
Пред. тема | След. тема 

Автор
Сообщение

СообщениеДобавлено: 03 ноя 2013, 18:14 

Название: Космический джэм
Оригинальное название: Space Jam
Год выхода: 1996
Жанр: комедия, фэнтези, анимационный, приключения, спорт
Режиссер: Джо Питка

В ролях: Майкл Джордан, Уэйн Найт, Тереза Рэндл, Маннер Вашингтон, Эрик Гордон, Пенни Бай Бриджес, Брэндон Хэммонд, Ларри Бёрд, Билл Мюррэй, Том Бэрри, Чарльз Баркли, Патрик Юинг, Тайрон Богз, Ларри Джонсон, Шон Брэдли

О фильме:
Кролик и чемпион: что за команда! Майкл Джордан бьет по мячу, а Багз Банни тусуется. Вся кавалькада звезд из серии «Сумасшедшие мелодии» не даст Вам скучать в мультипликационно-игровом фильме Космический джэм, в котором голливудские таланты не позволят Вашей фантазии связать себя земным притяжением. Шутки летают и веселье никогда не кончается. Кролик Багз Банни устроил себе и своей команде «веселенькое» испытание, предложив померяться силами со сварливой бандой крошечных космических пришельцев. От исхода матча зависит, останутся ли мультгерои на Земле, или отправятся развлекать публику в заброшенной космической дыре под названием Гора Морон. Пришельцы владеют страшным секретным оружием: украденным у звезд баскетбола мастерством, что помогло им стать спортивными монстрами. Но это еще не все, ребята! У команды мультяшек есть свое секретное оружие: лучший игрок в этой, и прочих галактиках! Веселье — тоже галактическое.



Страна: США
Студия: Warner Bros., Family Entertainment, Northern Lights Entertainment, Courtside Seats Productions
Продолжительность: 01:27:20
Перевод: Дублированный, профессиональный (многоголосый закадровый), авторский (одноголосый закадровый)


Кодек: h.264
Качество: BDRip-AVC
Видео: 3022 Кбит/с, 1020x576, 23.976 кадр/с

Звук:
• №1: Русский (АС3, 6 ch, 384 Кбит/с) Дублированный [Мост-Видео]
• №2: Русский (АС3, 2 ch, 192 Кбит/с) Профессиональный многоголосый [Ren-TV]
• №3: Русский (АС3, 6 ch, 384 Кбит/с) Авторский одноголосый [Павел Санаев]
• №4: Английский (АС3, 6 ch, 384 Кбит/с)
Отдельно:
• №5: Русский (АС3, 2 ch, 192 Кбит/с) Дублированный [Варус-Видео]
• №6: Русский (АС3, 6 ch, 384 Кбит/с) Профессиональный многоголосый [Мост-Видео]
• №7: Русский (АС3, 6 ch, 384 Кбит/с) Авторский одноголосый [Юрий Живов]
• №8: Русский (AC3, 2 ch, 192 Кбит/с) Авторский одноголосый [Александр Кашкин (Первомайский)]
• №9: Русский (AC3, 2 ch, 192 Кбит/с) Авторский одноголосый ["КоллЕдж"]
• №10: Русский (AC3, 2 ch, 192 Кбит/с) Авторский одноголосый [Сергей Визгунов]
• №11: Украинский (AC3, 2 ch, 192 Кбит/с) Профессиональный многоголосый [ICTV]

Субтитры: Русские, английские

------------------------------------------------------------------
x264 [info]: frame I:1219 Avg QP:16.84 size: 92759
x264 [info]: frame P:33789 Avg QP:19.88 size: 30112
x264 [info]: frame B:90633 Avg QP:21.45 size: 9369
------------------------------------------------------------------

Полное имя : Space.Jam.1996.x264.BDRip.(AVC).0ptimus.ALL.AUDIO.mkv
Формат : Matroska
Версия формата : Version 4 / Version 2
Размер файла : 3,72 Гбайт
Продолжительность : 1 ч. 27 м.
Общий поток : 6099 Кбит/сек
Название фильма : Космический джэм | Space Jam [1996] -=BDRip (AVC) by 0ptimus=-
Дата кодирования : UTC 2013-07-05 11:30:01
Программа кодирования : mkvmerge v6.1.0 ('Old Devil') built on Mar 2 2013 14:32:37
Библиотека кодирования : libebml v1.3.0 + libmatroska v1.4.0

Видео
Идентификатор : 1
Формат : AVC
Формат/Информация : Advanced Video Codec
Профиль формата : High@L4.1
Параметр CABAC формата : Да
Параметр ReFrames формата : 9 кадров
Идентификатор кодека : V_MPEG4/ISO/AVC
Продолжительность : 1 ч. 27 м.
Битрейт : 3022 Кбит/сек
Ширина : 1020 пикселей
Высота : 576 пикселей
Соотношение сторон : 16:9
Частота кадров : 23,976 кадра/сек
Цветовое пространство : YUV
Субдискретизация насыщенности : 4:2:0
Битовая глубина : 8 бит
Тип развёртки : Прогрессивная
Бит/(Пиксели*Кадры) : 0.215
Размер потока : 1,77 Гбайт (48%)
Заголовок : Rip by 0ptimus
Библиотека кодирования : x264 core 130 r2273 b3065e6
Настройки программы : cabac=1 / ref=9 / deblock=1:-3:-3 / analyse=0x3:0x113 / me=umh / subme=11 / psy=1 / psy_rd=1.00:0.20 / mixed_ref=1 / me_range=32 / chroma_me=1 / trellis=2 / 8x8dct=1 / cqm=0 / deadzone=21,11 / fast_pskip=0 / chroma_qp_offset=-3 / threads=3 / lookahead_threads=1 / sliced_threads=0 / nr=0 / decimate=0 / interlaced=0 / bluray_compat=0 / constrained_intra=0 / bframes=8 / b_pyramid=2 / b_adapt=2 / b_bias=0 / direct=3 / weightb=1 / open_gop=0 / weightp=2 / keyint=240 / keyint_min=23 / scenecut=40 / intra_refresh=0 / rc_lookahead=40 / rc=2pass / mbtree=0 / bitrate=3022 / ratetol=1.0 / qcomp=0.60 / qpmin=0 / qpmax=69 / qpstep=4 / cplxblur=20.0 / qblur=0.5 / vbv_maxrate=50000 / vbv_bufsize=50000 / nal_hrd=none / ip_ratio=1.40 / pb_ratio=1.30 / aq=1:1.00
Язык : English

Аудио #1
Идентификатор : 2
Формат : AC-3
Формат/Информация : Audio Coding 3
Расширение режима : CM (complete main)
Идентификатор кодека : A_AC3
Продолжительность : 1 ч. 27 м.
Вид битрейта : Постоянный
Битрейт : 384 Кбит/сек
Каналы : 6 каналов
Расположение каналов : Front: L C R, Side: L R, LFE
Частота : 48,0 КГц
Битовая глубина : 16 бит
Метод сжатия : С потерями
Размер потока : 240 Мбайт (6%)
Заголовок : Дублированный [Мост-Видео] AC3 5.1 384 kbps
Язык : Russian

Аудио #2
Идентификатор : 3
Формат : AC-3
Формат/Информация : Audio Coding 3
Расширение режима : CM (complete main)
Идентификатор кодека : A_AC3
Продолжительность : 1 ч. 27 м.
Вид битрейта : Постоянный
Битрейт : 192 Кбит/сек
Каналы : 2 канала
Расположение каналов : Front: L R
Частота : 48,0 КГц
Битовая глубина : 16 бит
Метод сжатия : С потерями
Размер потока : 120 Мбайт (3%)
Заголовок : Многоголосый закадровый [Ren-TV] AC3 2.0 192 kbps
Язык : Russian

Аудио #3
Идентификатор : 4
Формат : AC-3
Формат/Информация : Audio Coding 3
Расширение режима : CM (complete main)
Идентификатор кодека : A_AC3
Продолжительность : 1 ч. 27 м.
Вид битрейта : Постоянный
Битрейт : 384 Кбит/сек
Каналы : 6 каналов
Расположение каналов : Front: L C R, Side: L R, LFE
Частота : 48,0 КГц
Битовая глубина : 16 бит
Метод сжатия : С потерями
Размер потока : 240 Мбайт (6%)
Заголовок : Авторский [Павел Санаев] AC3 5.1 384 kbps
Язык : Russian

Аудио #4
Идентификатор : 5
Формат : AC-3
Формат/Информация : Audio Coding 3
Расширение режима : CM (complete main)
Идентификатор кодека : A_AC3
Продолжительность : 1 ч. 27 м.
Вид битрейта : Постоянный
Битрейт : 384 Кбит/сек
Каналы : 6 каналов
Расположение каналов : Front: L C R, Side: L R, LFE
Частота : 48,0 КГц
Битовая глубина : 16 бит
Метод сжатия : С потерями
Размер потока : 240 Мбайт (6%)
Заголовок : AC3 5.1 384 kbps
Язык : English

Аудио #5
Идентификатор : 6
Формат : AC-3
Формат/Информация : Audio Coding 3
Расширение режима : CM (complete main)
Идентификатор кодека : A_AC3
Продолжительность : 1 ч. 27 м.
Вид битрейта : Постоянный
Битрейт : 192 Кбит/сек
Каналы : 2 канала
Расположение каналов : Front: L R
Частота : 48,0 КГц
Битовая глубина : 16 бит
Метод сжатия : С потерями
Размер потока : 120 Мбайт (3%)
Заголовок : Дублированный [Варус-Видео] AC3 2.0 192 kbps
Язык : Russian

Аудио #6
Идентификатор : 7
Формат : AC-3
Формат/Информация : Audio Coding 3
Расширение режима : CM (complete main)
Идентификатор кодека : A_AC3
Продолжительность : 1 ч. 27 м.
Вид битрейта : Постоянный
Битрейт : 384 Кбит/сек
Каналы : 6 каналов
Расположение каналов : Front: L C R, Side: L R, LFE
Частота : 48,0 КГц
Битовая глубина : 16 бит
Метод сжатия : С потерями
Размер потока : 240 Мбайт (6%)
Заголовок : Многоголосый закадровый [Мост-Видео] AC3 5.1 384 kbps

Аудио #7
Идентификатор : 8
Формат : AC-3
Формат/Информация : Audio Coding 3
Расширение режима : CM (complete main)
Идентификатор кодека : A_AC3
Продолжительность : 1 ч. 27 м.
Вид битрейта : Постоянный
Битрейт : 384 Кбит/сек
Каналы : 6 каналов
Расположение каналов : Front: L C R, Side: L R, LFE
Частота : 48,0 КГц
Битовая глубина : 16 бит
Метод сжатия : С потерями
Размер потока : 240 Мбайт (6%)
Заголовок : Авторский [Юрий Живов] AC3 5.1 384 kbps
Язык : Russian

Аудио #8
Идентификатор : 9
Формат : AC-3
Формат/Информация : Audio Coding 3
Расширение режима : CM (complete main)
Идентификатор кодека : A_AC3
Продолжительность : 1 ч. 27 м.
Вид битрейта : Постоянный
Битрейт : 192 Кбит/сек
Каналы : 2 канала
Расположение каналов : Front: L R
Частота : 48,0 КГц
Битовая глубина : 16 бит
Метод сжатия : С потерями
Размер потока : 120 Мбайт (3%)
Заголовок : Авторский [Сергей Визгунов] AC3 2.0 192 kbps
Язык : Russian

Аудио #9
Идентификатор : 10
Формат : AC-3
Формат/Информация : Audio Coding 3
Расширение режима : CM (complete main)
Идентификатор кодека : A_AC3
Продолжительность : 1 ч. 27 м.
Вид битрейта : Постоянный
Битрейт : 192 Кбит/сек
Каналы : 2 канала
Расположение каналов : Front: L R
Частота : 48,0 КГц
Битовая глубина : 16 бит
Метод сжатия : С потерями
Размер потока : 120 Мбайт (3%)
Заголовок : Авторский [Александр Кашкин (Первомайский)] AC3 2.0 192 kbps
Язык : Russian

Аудио #10
Идентификатор : 11
Формат : AC-3
Формат/Информация : Audio Coding 3
Расширение режима : CM (complete main)
Идентификатор кодека : A_AC3
Продолжительность : 1 ч. 27 м.
Вид битрейта : Постоянный
Битрейт : 192 Кбит/сек
Каналы : 2 канала
Расположение каналов : Front: L R
Частота : 48,0 КГц
Битовая глубина : 16 бит
Метод сжатия : С потерями
Размер потока : 120 Мбайт (3%)
Заголовок : Авторский [КоллЕдж] AC3 2.0 192 kbps
Язык : Russian

Аудио #11
Идентификатор : 12
Формат : AC-3
Формат/Информация : Audio Coding 3
Расширение режима : CM (complete main)
Идентификатор кодека : A_AC3
Продолжительность : 1 ч. 27 м.
Вид битрейта : Постоянный
Битрейт : 192 Кбит/сек
Каналы : 2 канала
Расположение каналов : Front: L R
Частота : 48,0 КГц
Битовая глубина : 16 бит
Метод сжатия : С потерями
Размер потока : 120 Мбайт (3%)
Заголовок : Многоголосый закадровый [ICTV] AC3 2.0 192 kbps
Язык : Ukrainian

Текст #1
Идентификатор : 13
Формат : UTF-8
Идентификатор кодека : S_TEXT/UTF8
Идентификатор кодека/Информация : UTF-8 Plain Text
Язык : Russian

Текст #2
Идентификатор : 14
Формат : UTF-8
Идентификатор кодека : S_TEXT/UTF8
Идентификатор кодека/Информация : UTF-8 Plain Text
Язык : English

Меню
00:00:00.000 : en:Michael's Dream
00:02:22.642 : en:Hoop-Crazy / Credits
00:05:54.854 : en:Moon Mountain
00:09:01.123 : en:Good-Looking Strikeout
00:11:35.945 : en:Diminutive Visitors
00:14:09.139 : en:At Home With the Jordans
00:18:14.468 : en:The Challenge
00:21:36.628 : en:Disorder in the Court
00:24:26.339 : en:Player Revolt
00:25:47.087 : en:Monstars!
00:27:45.413 : en:Hole in One... With Help
00:30:26.533 : en:Vanishing Act
00:31:19.711 : en:Michael's New Pals
00:34:05.001 : en:The Mean Team Visits
00:36:59.300 : en:A Wannabe Charles Barkley
00:38:11.914 : en:What's The Matter?
00:39:39.418 : en:"Don't Call Me 'Doll'"
00:42:11.070 : en:Michael's Gear
00:45:54.084 : en:Unbelievable
00:46:39.755 : en:Daffy's Suggestion
00:47:11.787 : en:He Can Still Play
00:48:05.799 : en:Dork on the Bench
00:50:01.039 : en:Staring Lineups
00:53:40.884 : en:Kinda One-Sided
00:56:56.746 : en:The Smell of a Spy
00:57:56.973 : en:Secret Stuff
01:00:14.068 : en:Whole New Ball Game
01:02:27.577 : en:Raising the Stakes
01:04:09.679 : en:Monstar Mash
01:06:06.420 : en:Stan's in - and Out
01:07:42.475 : en:Our Fifth Guy
01:09:32.793 : en:The Final Basket
01:11:49.388 : en:Swackhammer's Space Jam
01:12:30.304 : en:Looney Enough?
01:14:16.452 : en:Making an Entrance
01:15:25.896 : en:Back in the Game
01:18:23.490 : en:End Credits
01:26:53.208 : en:That's All, Folks!




Релиз от:
загрузка...
Правила, инструкции, FAQ!!!
Торрент  Добавлен [03 ноя 2013, 18:14] Скачать торрент
Скачать торрент
[ Размер 39.01 КБ / Просмотров 7 ]

Статус  
 
Размер  3.72 ГБ
Приватный: Нет (DHT включён)
.torrent скачан  0
Как залить торрент? | Как скачать Torrent? | Как смотреть и слушать онлайн?  


     Отправить личное сообщение
   
Страница 1 из 1
Показать сообщения за:  Поле сортировки  
Начать новую тему Ответить на тему

   Похожие торренты   Автор   Ответы   Просмотры   Последнее сообщение 
В этой теме нет новых непрочитанных сообщений. Скачать торрент Космический мусор 3D / Space Junk 3D (2012) BDRip 1080p от Ash61 | 3D-Video | halfOU | P2

в форуме HD-Video в 3D, Размер: 2.77 ГБ, Здоровье: 100%

Anonymous

0
59|2

83
203

25 апр 2014, 22:23

Anonymous Перейти к последнему сообщению

В этой теме нет новых непрочитанных сообщений. Скачать торрент Космический пират Харлок / Space Pirate Captain Harlock (2013) BDRip 720p

в форуме Зарубежные мультфильмы (HD Video), Размер: 4.39 ГБ, Здоровье: 100%

Anonymous

0
30|0

70
529

14 мар 2014, 23:53

Anonymous Перейти к последнему сообщению

В этой теме нет новых непрочитанных сообщений. Скачать торрент Проверен Космический пират Харлок / Space Pirate Captain Harlock (2013) BDRip 1080p от Ash61 | 3D-Video | halfOU | D, A | Лицензия

в форуме HD-Video в 3D, Размер: 5.88 ГБ, Здоровье: 100%

Anonymous

1
175|7

100
327

29 сен 2014, 06:30

Bionik Перейти к последнему сообщению

В этой теме нет новых непрочитанных сообщений. Скачать торрент Космический пират Харлок / Space Pirate Captain Harlock (2013) HDRip

в форуме Зарубежные мультфильмы, Размер: 2.05 ГБ, Здоровье: 100%

Anonymous

0
784|205

71
12789

14 мар 2014, 21:42

Anonymous Перейти к последнему сообщению

В этой теме нет новых непрочитанных сообщений. Скачать торрент Проверен Космический спецназ Гарфилда 3Д / Garfield's Pet Force 3D (Марк А.З. Диппе / Mark A.Z. Dippé) [2009, комедия, семейный, мультфильм, BDrip-AVC] Half SideBySide / Горизонтальная анаморфная стереопара

в форуме 3D Мультфильмы, Размер: 3.95 ГБ, Здоровье: 0%

Anonymous

0
0|0

2
0

07 сен 2016, 18:16

Anonymous Перейти к последнему сообщению



Сейчас этот форум просматривают: нет зарегистрированных пользователей и гости: 2


Вы не можете начинать темы
Вы не можете отвечать на сообщения
Вы не можете редактировать свои сообщения
Вы не можете удалять свои сообщения
Вы не можете добавлять вложения

Перейти:  

!ВНИМАНИЕ!
 Ресурс не предоставляет электронные версии произведений, а занимается лишь коллекционированием и каталогизацией ссылок, присылаемых и публикуемых на форуме нашими читателями. Если вы являетесь правообладателем какого-либо представленного материала и не желаете чтобы ссылка на него находилась в нашем каталоге, свяжитесь с нами и мы незамедлительно удалим её. Файлы для обмена на трекере предоставлены пользователями сайта, и администрация не несёт ответственности за их содержание. Просьба не заливать файлы, защищенные авторскими правами, а также файлы нелегального содержания!