На всех торрентах на трекере установлена скидка на скачивание в размере 100 процентов(а).
 Возможность скачивания торрента НЕ зависит от ограничений при низком ратио, низком аплоаде, требуемом ратио или требуемом аплоаде.


Начать новую тему Ответить на тему
Статистика раздачи
Размер: 4.62 ГБ | Добавлен: 03 ноя 2013, 01:29 | Скачали: 0
Сидеров: 0  [0 байт/сек]    Личеров: 0  [0 байт/сек]
Пред. тема | След. тема 

Автор
Сообщение

СообщениеДобавлено: 03 ноя 2013, 01:29 

Название: Смерть со спецэффектами
Оригинальное название: Freaky Deaky
Год выхода: 2012
Жанр: триллер, криминал, комедия
Режиссер: Чарльз Мэттоу

В ролях: Кристиан Слэйтер, Криспин Гловер, Майкл Джей Уайт, Билли Бурк, Энди Дик, Билл Дьюк, Роджер Барт, Марк Сауль, Глория Хендри, Сабина Гадеки

О фильме:
Бывшему полицейскому подрывнику Бобу Сквэду вновь приходится вспомнить, что сапер ошибается лишь раз. Разбирая дело женщины, обвинившей в изнасиловании некоего богача, он сам попадает в опасный переплет. У подозреваемого еще со времен бурной юности, проведенной в колледже, имеются два закадычных друга. Эти серьезные парни задались целью убить Боба.



Выпущено: США
Продолжительность: 01:33:14
Озвучивание: Любительское (одноголосое) [Артем Белоконский]


Формат: MKV
Качество: BDRip 720p [ENCOUNTERS]
Видео: 5668 kb/s, 1920х1080
Аудио: Russian: AC3, 384 kb/s (6 ch) / English / German: DTS, 1510 kb/s (6 ch)
Субтитры: English
Дополнительно: Сохранены оригинальные чаптеры как на Blu-Ray

Скачать: Сэмпл

Релиз группы:



General
Freaky.Deaky.BDRip.720p.CINEMANIA.mkv
Format : Matroska
Format version : Version 4 / Version 2
File size : 4.62 GiB
Duration : 1h 33mn
Overall bit rate : 7 091 Kbps
Movie name : CINEMANIA.CC
Encoded date : UTC 2013-11-02 13:36:41
Writing application : mkvmerge v6.5.0 ('Isn't she lovely') built on Oct 20 2013 12:50:05
Writing library : libebml v1.3.0 + libmatroska v1.4.1

Video
ID : 1
Format : AVC
Format/Info : Advanced Video Codec
Format profile : High@L4.1
Format settings, CABAC : Yes
Format settings, ReFrames : 5 frames
Codec ID : V_MPEG4/ISO/AVC
Duration : 1h 33mn
Bit rate : 5 198 Kbps
Width : 1 280 pixels
Height : 720 pixels
Display aspect ratio : 16:9
Frame rate mode : Constant
Frame rate : 23.976 fps
Color space : YUV
Chroma subsampling : 4:2:0
Bit depth : 8 bits
Scan type : Progressive
Bits/(Pixel*Frame) : 0.235
Stream size : 3.29 GiB (71%)
Title : CINEMANIA.CC
Writing library : x264 core 138 r2358 9e941d1
Encoding settings : cabac=1 / ref=5 / deblock=1:0:0 / analyse=0x3:0x133 / me=umh / subme=7 / psy=1 / psy_rd=1.00:0.00 / mixed_ref=1 / me_range=16 / chroma_me=1 / trellis=1 / 8x8dct=1 / cqm=0 / deadzone=21,11 / fast_pskip=0 / chroma_qp_offset=-2 / threads=18 / lookahead_threads=3 / sliced_threads=0 / nr=0 / decimate=1 / interlaced=0 / bluray_compat=0 / constrained_intra=0 / bframes=3 / b_pyramid=2 / b_adapt=1 / b_bias=0 / direct=1 / weightb=1 / open_gop=0 / weightp=2 / keyint=240 / keyint_min=23 / scenecut=40 / intra_refresh=0 / rc_lookahead=40 / rc=2pass / mbtree=1 / bitrate=5198 / ratetol=1.0 / qcomp=0.60 / qpmin=10 / qpmax=69 / qpstep=4 / cplxblur=20.0 / qblur=0.5 / ip_ratio=1.40 / aq=1:1.00
Language : English
Default : Yes
Forced : No

Audio #1
ID : 2
Format : AC-3
Format/Info : Audio Coding 3
Mode extension : CM (complete main)
Format settings, Endianness : Big
Codec ID : A_AC3
Duration : 1h 33mn
Bit rate mode : Constant
Bit rate : 384 Kbps
Channel(s) : 6 channels
Channel positions : Front: L C R, Side: L R, LFE
Sampling rate : 48.0 KHz
Bit depth : 16 bits
Compression mode : Lossy
Stream size : 256 MiB (5%)
Title : А.Белоконский
Language : Russian
Default : Yes
Forced : Yes

Audio #2
ID : 3
Format : DTS
Format/Info : Digital Theater Systems
Mode : 16
Format settings, Endianness : Big
Codec ID : A_DTS
Duration : 1h 33mn
Bit rate mode : Constant
Bit rate : 1 509 Kbps
Channel(s) : 6 channels
Channel positions : Front: L C R, Side: L R, LFE
Sampling rate : 48.0 KHz
Bit depth : 16 bits
Compression mode : Lossy
Stream size : 1 006 MiB (21%)
Language : English
Default : No
Forced : No

Text
ID : 4
Format : UTF-8
Codec ID : S_TEXT/UTF8
Codec ID/Info : UTF-8 Plain Text
Language : English
Default : No
Forced : No

Menu
00:00:00.000 : en:00:00:00.000
00:08:37.099 : en:00:08:37.099
00:14:52.641 : en:00:14:52.641
00:22:09.619 : en:00:22:09.619
00:29:29.726 : en:00:29:29.726
00:40:00.189 : en:00:40:00.189
00:49:24.753 : en:00:49:24.753
00:57:29.028 : en:00:57:29.028
01:04:41.085 : en:01:04:41.085
01:10:15.252 : en:01:10:15.252
01:22:56.888 : en:01:22:56.888
01:29:58.184 : en:01:29:58.184
01:33:02.326 : en:01:33:02.326
загрузка...
Правила, инструкции, FAQ!!!
Торрент  Добавлен [03 ноя 2013, 01:29] Скачать торрент
Скачать торрент
[ Размер 23.57 КБ / Просмотров 12 ]

Статус  
 
Размер  4.62 ГБ
Приватный: Нет (DHT включён)
.torrent скачан  0
Как залить торрент? | Как скачать Torrent? | Как смотреть и слушать онлайн?  


     Отправить личное сообщение
   
Страница 1 из 1
Показать сообщения за:  Поле сортировки  
Начать новую тему Ответить на тему

   Похожие торренты   Автор   Ответы   Просмотры   Последнее сообщение 
В этой теме нет новых непрочитанных сообщений. Скачать торрент Смерть ей к лицу / Death Becomes Her (1992) BDRip 720p | P, A

в форуме 720p | 1080p, Размер: 7 ГБ, Здоровье: 0%

Anonymous

0
0|0

30
0

24 янв 2014, 19:20

Anonymous Перейти к последнему сообщению

В этой теме нет новых непрочитанных сообщений. Скачать торрент Проверен Девушка и смерть / Het Meisje en de Dood (2012) HDTVRip 720p

в форуме 720p | 1080p, Размер: 3.46 ГБ, Здоровье: 100%

Anonymous

0
31|1

22
129

25 окт 2014, 17:50

Anonymous Перейти к последнему сообщению

В этой теме нет новых непрочитанных сообщений. Скачать торрент Проверен (Indie / Garage / Punk) Glintshake - Freaky Man [EP] - 2012, MP3, 320 kbps

в форуме Русский Рок, Размер: 27.29 МБ, Здоровье: 0%

Anonymous

0
0|0

3
0

21 авг 2016, 13:28

Anonymous Перейти к последнему сообщению

В этой теме нет новых непрочитанных сообщений. Скачать торрент Проверен (Breakbeat, Electro) [EP] [16/48] Freaky Chakra vs. Single Cell Orchestra - Freaky Chakra vs. Single Cell Orchestra - 1996, FLAC (tracks+.cue)

в форуме Электронная музыка (оцифровки), Размер: 120 МБ, Здоровье: 0%

Anonymous

0
0|0

1
0

15 сен 2016, 18:42

Anonymous Перейти к последнему сообщению

В этой теме нет новых непрочитанных сообщений. Скачать торрент Проверен Rammstein: Videos 1995-2012 [2012, Industrial , BDRip (720p)]

в форуме Концерты (HD-Video), Размер: 21.24 ГБ, Здоровье: 100%

Гость

0
57|37

791
11

26 апр 2015, 22:42

Гость Перейти к последнему сообщению



Сейчас этот форум просматривают: нет зарегистрированных пользователей и гости: 1


Вы не можете начинать темы
Вы не можете отвечать на сообщения
Вы не можете редактировать свои сообщения
Вы не можете удалять свои сообщения
Вы не можете добавлять вложения

Перейти:  

!ВНИМАНИЕ!
 Ресурс не предоставляет электронные версии произведений, а занимается лишь коллекционированием и каталогизацией ссылок, присылаемых и публикуемых на форуме нашими читателями. Если вы являетесь правообладателем какого-либо представленного материала и не желаете чтобы ссылка на него находилась в нашем каталоге, свяжитесь с нами и мы незамедлительно удалим её. Файлы для обмена на трекере предоставлены пользователями сайта, и администрация не несёт ответственности за их содержание. Просьба не заливать файлы, защищенные авторскими правами, а также файлы нелегального содержания!