На всех торрентах на трекере установлена скидка на скачивание в размере 100 процентов(а).
 Возможность скачивания торрента НЕ зависит от ограничений при низком ратио, низком аплоаде, требуемом ратио или требуемом аплоаде.


Начать новую тему Ответить на тему
Статистика раздачи
Размер: 4.49 ГБ | Добавлен: 03 ноя 2013, 01:25 | Скачали: 0
Сидеров: 0  [0 байт/сек]    Личеров: 0  [0 байт/сек]
Пред. тема | След. тема 

Автор
Сообщение

СообщениеДобавлено: 03 ноя 2013, 01:25 

Название: 100 акров крови
Оригинальное название: 100 Bloody Acres
Год выхода: 2012
Жанр: Комедия, ужасы
Режиссер: Камерон Кайрнес, Колин Кайрнес

В ролях: Дэймон Херриман, Энгус Сэмпсон, Анна МакГахэн, Оливер Экланд, Джеймс Кристиан, Джон Джэррэт, Крисси Пейдж, Пол Блэкуэлл

О фильме:
Два брата Редж и Линдси занимаются производством органических удобрений и бизнес их более чем успешно развивается, что не мудрено, ведь в производстве они используют один тайный ингридиент, который проворачивают через мясорубку!



Страна: Австралия
Продолжительность: 01:30:57
Озвучивание: Любительское (одноголосое) [Васька Куролесов]


Формат: MKV
Качество: BDRip 720p [BRMP]
Видео: 5367 kb/s, 1280x536
Аудио: Russian: AC3, 192 kb/s (2 ch) / English: DTS, 1510 kb/s (6 ch)

Скачать: Сэмпл

Релиз группы:



General
100.Bloody.Acres.2012.BDRip.720p.CINEMANIA.mkv
Format : Matroska
Format version : Version 4 / Version 2
File size : 4.49 GiB
Duration : 1h 30mn
Overall bit rate : 7 068 Kbps
Movie name : CINEMANIA.CC
Encoded date : UTC 2013-11-02 14:02:45
Writing application : mkvmerge v6.5.0 ('Isn't she lovely') built on Oct 20 2013 12:50:05
Writing library : libebml v1.3.0 + libmatroska v1.4.1

Video
ID : 1
Format : AVC
Format/Info : Advanced Video Codec
Format profile : High@L4.1
Format settings, CABAC : Yes
Format settings, ReFrames : 5 frames
Codec ID : V_MPEG4/ISO/AVC
Duration : 1h 30mn
Bit rate : 5 367 Kbps
Width : 1 280 pixels
Height : 536 pixels
Display aspect ratio : 2.40:1
Frame rate mode : Constant
Frame rate : 23.976 fps
Color space : YUV
Chroma subsampling : 4:2:0
Bit depth : 8 bits
Scan type : Progressive
Bits/(Pixel*Frame) : 0.326
Stream size : 3.32 GiB (74%)
Title : CINEMANIA.CC
Writing library : x264 core 133 r2334 a3ac64b
Encoding settings : cabac=1 / ref=5 / deblock=1:0:0 / analyse=0x3:0x133 / me=umh / subme=7 / psy=1 / psy_rd=1.00:0.00 / mixed_ref=1 / me_range=16 / chroma_me=1 / trellis=1 / 8x8dct=1 / cqm=0 / deadzone=21,11 / fast_pskip=0 / chroma_qp_offset=-2 / threads=12 / lookahead_threads=2 / sliced_threads=0 / nr=0 / decimate=1 / interlaced=0 / bluray_compat=0 / constrained_intra=0 / bframes=3 / b_pyramid=2 / b_adapt=1 / b_bias=0 / direct=1 / weightb=1 / open_gop=0 / weightp=2 / keyint=250 / keyint_min=23 / scenecut=40 / intra_refresh=0 / rc_lookahead=40 / rc=2pass / mbtree=1 / bitrate=5367 / ratetol=1.0 / qcomp=0.60 / qpmin=0 / qpmax=69 / qpstep=4 / cplxblur=20.0 / qblur=0.5 / ip_ratio=1.40 / aq=1:1.00
Language : English
Default : Yes
Forced : No

Audio #1
ID : 2
Format : AC-3
Format/Info : Audio Coding 3
Mode extension : CM (complete main)
Format settings, Endianness : Big
Codec ID : A_AC3
Duration : 1h 30mn
Bit rate mode : Constant
Bit rate : 192 Kbps
Channel(s) : 2 channels
Channel positions : Front: L R
Sampling rate : 48.0 KHz
Bit depth : 16 bits
Compression mode : Lossy
Stream size : 125 MiB (3%)
Title : Васька Куролесов
Language : Russian
Default : No
Forced : Yes

Audio #2
ID : 3
Format : DTS
Format/Info : Digital Theater Systems
Mode : 16
Format settings, Endianness : Big
Codec ID : A_DTS
Duration : 1h 30mn
Bit rate mode : Constant
Bit rate : 1 509 Kbps
Channel(s) : 6 channels
Channel positions : Front: L C R, Side: L R, LFE
Sampling rate : 48.0 KHz
Bit depth : 24 bits
Compression mode : Lossy
Stream size : 981 MiB (21%)
Language : English
Default : No
Forced : No
загрузка...
Правила, инструкции, FAQ!!!
Торрент  Добавлен [03 ноя 2013, 01:25] Скачать торрент
Скачать торрент
[ Размер 22.93 КБ / Просмотров 11 ]

Статус  
 
Размер  4.49 ГБ
Приватный: Нет (DHT включён)
.torrent скачан  0
Как залить торрент? | Как скачать Torrent? | Как смотреть и слушать онлайн?  


     Отправить личное сообщение
   
Страница 1 из 1
Показать сообщения за:  Поле сортировки  
Начать новую тему Ответить на тему

   Похожие торренты   Автор   Ответы   Просмотры   Последнее сообщение 
В этой теме нет новых непрочитанных сообщений. Скачать торрент Проверен (Classic Rock) Voodoo Acres - Welcome To Voodoo Acres - 2016, MP3, 320 kbps

в форуме Classic Rock & Hard Rock, Размер: 72.91 МБ, Здоровье: 0%

Anonymous

0
0|0

0
0

13 ноя 2016, 15:02

Anonymous Перейти к последнему сообщению

В этой теме нет новых непрочитанных сообщений. Скачать торрент Проверен (Heavy Metal) Bloody Herald - Like A Bloody Herald Remains - 2006, MP3, 320 kbps

в форуме Heavy, Power, Progressive (Metal), Размер: 118.37 МБ, Здоровье: 0%

Anonymous

0
0|0

0
0

08 окт 2016, 18:12

Anonymous Перейти к последнему сообщению

В этой теме нет новых непрочитанных сообщений. Скачать торрент Проверен (Melodic Hard Rock) Eleven Bloody Men - Eleven Bloody Men - 1992, MP3, 320 kbps

в форуме AOR (Melodic Hard Rock, Arena rock), Размер: 83.34 МБ, Здоровье: 0%

Anonymous

0
0|0

0
0

08 окт 2016, 01:48

Anonymous Перейти к последнему сообщению

В этой теме нет новых непрочитанных сообщений. Скачать торрент Проверен (Heavy Metal) Bloody Hell - Bloody Hell - 2015, MP3, 320 kbps

в форуме Heavy, Power, Progressive (Metal), Размер: 77.42 МБ, Здоровье: 0%

Anonymous

0
0|0

0
0

09 окт 2016, 09:37

Anonymous Перейти к последнему сообщению

В этой теме нет новых непрочитанных сообщений. Скачать торрент Проверен (Heavy Metal) Bloody Mary - Bloody Mary - 1985, MP3, 128 kbps

в форуме Heavy, Power, Progressive (Metal), Размер: 36.79 МБ, Здоровье: 0%

Anonymous

0
0|0

0
0

09 окт 2016, 12:38

Anonymous Перейти к последнему сообщению



Сейчас этот форум просматривают: нет зарегистрированных пользователей и гости: 4


Вы не можете начинать темы
Вы не можете отвечать на сообщения
Вы не можете редактировать свои сообщения
Вы не можете удалять свои сообщения
Вы не можете добавлять вложения

Перейти:  

!ВНИМАНИЕ!
 Ресурс не предоставляет электронные версии произведений, а занимается лишь коллекционированием и каталогизацией ссылок, присылаемых и публикуемых на форуме нашими читателями. Если вы являетесь правообладателем какого-либо представленного материала и не желаете чтобы ссылка на него находилась в нашем каталоге, свяжитесь с нами и мы незамедлительно удалим её. Файлы для обмена на трекере предоставлены пользователями сайта, и администрация не несёт ответственности за их содержание. Просьба не заливать файлы, защищенные авторскими правами, а также файлы нелегального содержания!