На всех торрентах на трекере установлена скидка на скачивание в размере 100 процентов(а).
 Возможность скачивания торрента НЕ зависит от ограничений при низком ратио, низком аплоаде, требуемом ратио или требуемом аплоаде.


Начать новую тему Ответить на тему
Статистика раздачи
Размер: 3.04 ГБ | Добавлен: 03 ноя 2013, 01:22 | Скачали: 0
Сидеров: 0  [0 байт/сек]    Личеров: 0  [0 байт/сек]
Пред. тема | След. тема 

Автор
Сообщение

СообщениеДобавлено: 03 ноя 2013, 01:22 

Название: Курандеро
Оригинальное название: Curandero
Год выпуска: 2005
Жанр: ужасы
Режиссер: Эдуардо Родригез

В ролях: Карлос Гальярдо, Гизет Галатэа, Габриэль Пингаррон, Хосе Карлос Руис, Жерардо Зепеда, Серджо Акоста, Эрнесто Яньес, Хавьер Эскобар, Элихио Мелендес, Рене Камперо

О фильме:
История о федеральном агенте Магдалене, который отправляется в экстремальное путешествие по самым темным уголкам Мексики в поисках истоков развития черной магии ...



Выпущено: США, Мексика
Продолжительность: 01:35:30
Озвучивание: Любительское (многоголосое) [DeadSno & den904]


Формат: MKV
Качество: WEB-DL 720p [CINEMANIA]
Видео: 3891 kb/s, 1280x716
Аудио: Russian: AC3, 192 (2 ch) / Spanish: AC3, 384 kb/s (6 ch)
Субтитры: English (hardsub)
Дополнительно: Сохранены оригинальные чаптеры как на Blu-Ray
Размер: 3.04 GB
Скачать: Сэмпл

Релиз группы:



General
Curandero.2005.WEB-DL.720p.CINEMANIA.mkv
Format : Matroska
Format version : Version 4 / Version 2
File size : 3.04 GiB
Duration : 1h 35mn
Overall bit rate : 4 558 Kbps
Movie name : CINEMANIA.CC
Encoded date : UTC 2013-11-02 14:53:26
Writing application : mkvmerge v6.5.0 ('Isn't she lovely') built on Oct 20 2013 12:50:05
Writing library : libebml v1.3.0 + libmatroska v1.4.1

Video
ID : 1
Format : AVC
Format/Info : Advanced Video Codec
Format profile : High@L3.1
Format settings, CABAC : No
Format settings, ReFrames : 2 frames
Codec ID : V_MPEG4/ISO/AVC
Duration : 1h 35mn
Bit rate : 3 891 Kbps
Width : 1 280 pixels
Height : 716 pixels
Display aspect ratio : 16:9
Frame rate mode : Constant
Frame rate : 23.976 fps
Color space : YUV
Chroma subsampling : 4:2:0
Bit depth : 8 bits
Scan type : Progressive
Bits/(Pixel*Frame) : 0.177
Stream size : 2.60 GiB (85%)
Title : CINEMANIA.CC
Language : Spanish
Default : Yes
Forced : No
Color primaries : BT.709
Transfer characteristics : BT.709
Matrix coefficients : BT.709

Audio #1
ID : 2
Format : AC-3
Format/Info : Audio Coding 3
Mode extension : CM (complete main)
Format settings, Endianness : Big
Codec ID : A_AC3
Duration : 1h 35mn
Bit rate mode : Constant
Bit rate : 192 Kbps
Channel(s) : 2 channels
Channel positions : Front: L R
Sampling rate : 48.0 KHz
Bit depth : 16 bits
Compression mode : Lossy
Stream size : 131 MiB (4%)
Title : DeadSno & den904
Language : Russian
Default : Yes
Forced : Yes

Audio #2
ID : 3
Format : AC-3
Format/Info : Audio Coding 3
Mode extension : CM (complete main)
Format settings, Endianness : Big
Codec ID : A_AC3
Duration : 1h 35mn
Bit rate mode : Constant
Bit rate : 384 Kbps
Channel(s) : 6 channels
Channel positions : Front: L C R, Side: L R, LFE
Sampling rate : 48.0 KHz
Bit depth : 16 bits
Compression mode : Lossy
Stream size : 262 MiB (8%)
Language : Spanish
Default : No
Forced : No

Menu
00:00:00.000 : en:Chapter 1
00:03:13.000 : en:Chapter 2
00:11:13.000 : en:Chapter 3
00:20:42.000 : en:Chapter 4
00:28:16.000 : en:Chapter 5
00:36:23.000 : en:Chapter 6
00:45:52.000 : en:Chapter 7
00:53:20.000 : en:Chapter 8
01:03:26.000 : en:Chapter 9
01:12:20.000 : en:Chapter 10
01:20:38.000 : en:Chapter 11
01:31:54.000 : en:Chapter 12

загрузка...
Правила, инструкции, FAQ!!!
Торрент  Добавлен [03 ноя 2013, 01:22] Скачать торрент
Скачать торрент
[ Размер 15.68 КБ / Просмотров 7 ]

Статус  
 
Размер  3.04 ГБ
Приватный: Нет (DHT включён)
.torrent скачан  0
Как залить торрент? | Как скачать Torrent? | Как смотреть и слушать онлайн?  


     Отправить личное сообщение
   
Страница 1 из 1
Показать сообщения за:  Поле сортировки  
Начать новую тему Ответить на тему

   Похожие торренты   Автор   Ответы   Просмотры   Последнее сообщение 
В этой теме нет новых непрочитанных сообщений. Скачать торрент Проверен Garbage - Live in Sound Stage 2005 HD 720p [2005, Alternative - Rock, HDTVRip]

в форуме Концерты (HD-Video), Размер: 1.91 ГБ, Здоровье: 0%

Anonymous

0
0|0

1
0

23 окт 2016, 11:17

Anonymous Перейти к последнему сообщению

В этой теме нет новых непрочитанных сообщений. Скачать торрент Проверен The Strat Pack: Live In Concert (2005) (Terry Shand, Geoff Kemplin) [2005, Rock, BDRip, 720p]

в форуме Концерты (HD-Video), Размер: 8.7 ГБ, Здоровье: 100%

Anonymous

0
1|0

1
0

23 окт 2016, 15:44

Anonymous Перейти к последнему сообщению

В этой теме нет новых непрочитанных сообщений. Скачать торрент Проверен The Eagles - Hotel California (Live From Melbourne 2005) (HDTV 720p) [2005, HDTV] [2005, HDTV]

в форуме Концерты (HD-Video), Размер: 282.31 МБ, Здоровье: 100%

Anonymous

0
3|1

2
1

23 окт 2016, 16:32

Anonymous Перейти к последнему сообщению

В этой теме нет новых непрочитанных сообщений. Скачать торрент 9 рота (2005) BDRip 720p

в форуме 720p | 1080p, Размер: 7.91 ГБ, Здоровье: 0%

Anonymous

0
0|0

34
0

02 янв 2014, 18:04

Anonymous Перейти к последнему сообщению

В этой теме нет новых непрочитанных сообщений. Скачать торрент Морпехи / Jarhead (2005) BDRip 720p | D, A

в форуме 720p | 1080p, Размер: 7.93 ГБ, Здоровье: 100%

Anonymous

0
15|0

47
241

19 мар 2014, 15:12

Anonymous Перейти к последнему сообщению



Сейчас этот форум просматривают: нет зарегистрированных пользователей и гости: 4


Вы не можете начинать темы
Вы не можете отвечать на сообщения
Вы не можете редактировать свои сообщения
Вы не можете удалять свои сообщения
Вы не можете добавлять вложения

Перейти:  

!ВНИМАНИЕ!
 Ресурс не предоставляет электронные версии произведений, а занимается лишь коллекционированием и каталогизацией ссылок, присылаемых и публикуемых на форуме нашими читателями. Если вы являетесь правообладателем какого-либо представленного материала и не желаете чтобы ссылка на него находилась в нашем каталоге, свяжитесь с нами и мы незамедлительно удалим её. Файлы для обмена на трекере предоставлены пользователями сайта, и администрация не несёт ответственности за их содержание. Просьба не заливать файлы, защищенные авторскими правами, а также файлы нелегального содержания!