На всех торрентах на трекере установлена скидка на скачивание в размере 100 процентов(а).
 Возможность скачивания торрента НЕ зависит от ограничений при низком ратио, низком аплоаде, требуемом ратио или требуемом аплоаде.


Начать новую тему Ответить на тему
Статистика раздачи
Размер: 7.76 ГБ | Добавлен: 03 ноя 2013, 00:27 | Скачали: 0
Сидеров: 0  [0 байт/сек]    Личеров: 0  [0 байт/сек]
Пред. тема | След. тема 

Автор
Сообщение

СообщениеДобавлено: 03 ноя 2013, 00:27 

Название: Магнолия
Оригинальное название: Magnolia
Год выхода: 1999
Жанр: драма
Режиссер: Пол Томас Андерсон

В ролях: Том Круз, Филип Бейкер Холл, Филип Сеймур Хоффман, Джулианна Мур, Уильям Х. Мэйси, Джон Си Райли, Джейсон Робардс, Альфред Молина, Мелора Уолтерс, Майкл Боуэн

О фильме: Эта история произошла в долине Сан-Фернандо в дождливый день, когда на небе не было ни облачка. Благодаря вмешательству высших сил, а также нагромождению совпадений, случайностей, действий разных людей, их жизни и судьбы переплетутся и проникнут друг в друга в течение одного дня, финал которого будет незабываемым.



Выпущено: New Line Cinema
Продолжительность: 03:08:40
Перевод: Многоголосый закадровый (Киномания, РТР) + Авторский (Ю.Живов)


Кодек: x264
Качество: BDRip (источник: Blu-ray Disc)
Видео: 1280x534 (2,40:1), 23.976 fps, 4030 kbps
Аудио #1: AC-3, 6 ch, 448 kbps (Многоголосый закадровый, Киномания)
Аудио #2: AC-3, 2 ch, 320 kbps (Многоголосый закадровый, РТР)
Аудио #3: AC-3, 6 ch, 448 kbps (Одноголосый закадровый, Ю.Живов)
Аудио #4: AC-3, 6 ch, 640 kbps (Original)
Субтитры: Русские, Английские
Скачать: сэмпл

Скриншоты

Общее
Уникальный идентификатор : 223152971505339635386914518783658145749 (0xA7E1B2F1ABDF2B7A991CE5E13F05B7D5)
Полное имя : Magnolia.1999.BDRip.720p.Rus.Eng.mkv
Формат : Matroska
Версия формата : Version 2
Размер файла : 7,76 Гбайт
Продолжительность : 3 ч. 8 м.
Общий поток : 5888 Кбит/сек
Название фильма : Магнолия / Magnolia (1999)
Дата кодирования : UTC 2013-11-02 07:51:14
Программа кодирования : mkvmerge v5.8.0 ('No Sleep / Pillow') built on Sep 2 2012 15:37:04
Библиотека кодирования : libebml v1.2.3 + libmatroska v1.3.0

Видео
Идентификатор : 1
Формат : AVC
Формат/Информация : Advanced Video Codec
Профиль формата : High@L4.1
Параметр CABAC формата : Да
Параметр ReFrames формата : 9 кадров
Идентификатор кодека : V_MPEG4/ISO/AVC
Продолжительность : 3 ч. 8 м.
Битрейт : 4030 Кбит/сек
Ширина : 1280 пикселей
Высота : 534 пикселя
Соотношение сторон : 2,40:1
Частота кадров : 23,976 кадра/сек
Цветовое пространство : YUV
Субдискретизация насыщенности : 4:2:0
Битовая глубина : 8 бит
Тип развёртки : Прогрессивная
Бит/(Пиксели*Кадры) : 0.246
Размер потока : 5,16 Гбайт (66%)
Заголовок : Release by AlexKa
Библиотека кодирования : x264 core 138 r2358 9e941d1
Настройки программы : cabac=1 / ref=9 / deblock=1:-3:-3 / analyse=0x3:0x133 / me=umh / subme=11 / psy=1 / psy_rd=1.00:0.10 / mixed_ref=1 / me_range=32 / chroma_me=1 / trellis=2 / 8x8dct=1 / cqm=0 / deadzone=21,11 / fast_pskip=0 / chroma_qp_offset=-3 / threads=12 / lookahead_threads=3 / sliced_threads=0 / nr=0 / decimate=0 / interlaced=0 / bluray_compat=0 / constrained_intra=0 / bframes=10 / b_pyramid=2 / b_adapt=2 / b_bias=0 / direct=3 / weightb=1 / open_gop=0 / weightp=2 / keyint=240 / keyint_min=23 / scenecut=40 / intra_refresh=0 / rc=2pass / mbtree=0 / bitrate=4030 / ratetol=1.0 / qcomp=0.60 / qpmin=0 / qpmax=69 / qpstep=4 / cplxblur=20.0 / qblur=0.5 / ip_ratio=1.40 / pb_ratio=1.30 / aq=1:0.60
Язык : English

Аудио #1
Идентификатор : 2
Формат : AC-3
Формат/Информация : Audio Coding 3
Расширение режима : CM (complete main)
Идентификатор кодека : A_AC3
Продолжительность : 3 ч. 8 м.
Вид битрейта : Постоянный
Битрейт : 448 Кбит/сек
Каналы : 6 каналов
Расположение каналов : Front: L C R, Side: L R, LFE
Частота : 48,0 КГц
Битовая глубина : 16 бит
Метод сжатия : С потерями
Размер потока : 605 Мбайт (8%)
Заголовок : Многоголосый закадровый, Киномания
Язык : Russian

Аудио #2
Идентификатор : 3
Формат : AC-3
Формат/Информация : Audio Coding 3
Расширение режима : CM (complete main)
Идентификатор кодека : A_AC3
Продолжительность : 3 ч. 8 м.
Вид битрейта : Постоянный
Битрейт : 320 Кбит/сек
Каналы : 2 канала
Расположение каналов : Front: L R
Частота : 48,0 КГц
Битовая глубина : 16 бит
Метод сжатия : С потерями
Размер потока : 432 Мбайт (5%)
Заголовок : Многоголосый закадровый, РТР
Язык : Russian

Аудио #3
Идентификатор : 4
Формат : AC-3
Формат/Информация : Audio Coding 3
Расширение режима : CM (complete main)
Идентификатор кодека : A_AC3
Продолжительность : 3 ч. 8 м.
Вид битрейта : Постоянный
Битрейт : 448 Кбит/сек
Каналы : 6 каналов
Расположение каналов : Front: L C R, Side: L R, LFE
Частота : 48,0 КГц
Битовая глубина : 16 бит
Метод сжатия : С потерями
Размер потока : 605 Мбайт (8%)
Заголовок : Одноголосый закадровый, Ю.Живов
Язык : Russian

Аудио #4
Идентификатор : 5
Формат : AC-3
Формат/Информация : Audio Coding 3
Расширение режима : CM (complete main)
Идентификатор кодека : A_AC3
Продолжительность : 3 ч. 8 м.
Вид битрейта : Постоянный
Битрейт : 640 Кбит/сек
Каналы : 6 каналов
Расположение каналов : Front: L C R, Side: L R, LFE
Частота : 48,0 КГц
Битовая глубина : 16 бит
Метод сжатия : С потерями
Размер потока : 864 Мбайт (11%)
Заголовок : Original
Язык : English

Текст #1
Идентификатор : 6
Формат : UTF-8
Идентификатор кодека : S_TEXT/UTF8
Идентификатор кодека/Информация : UTF-8 Plain Text
Заголовок : Rus
Язык : Russian

Текст #2
Идентификатор : 7
Формат : UTF-8
Идентификатор кодека : S_TEXT/UTF8
Идентификатор кодека/Информация : UTF-8 Plain Text
Заголовок : Eng
Язык : English

Меню
00:00:00.000 : en:Prologue
00:06:04.322 : en:One
00:12:58.695 : en:82% Chance of Rain
00:43:22.350 : en:Light Showers
00:56:30.262 : en:Momentum
01:17:18.259 : en:Carmen
01:28:06.156 : en:Family Picnic
01:41:53.065 : en:One on One
02:02:59.664 : en:Wise Up
02:36:52.194 : en:The Kiss
02:45:21.120 : en:Rain
02:52:22.457 : en:So Now Then
x264 [info]: frame I:1415 Avg QP:13.66 size: 94745
x264 [info]: frame P:52623 Avg QP:16.51 size: 39719
x264 [info]: frame B:217362 Avg QP:18.61 size: 15999
x264 [info]: consecutive B-frames: 1.3% 2.6% 4.7% 15.8% 13.7% 33.6% 7.9% 12.4% 3.0% 3.3% 1.8%
загрузка...
Правила, инструкции, FAQ!!!
Торрент  Добавлен [03 ноя 2013, 00:27] Скачать торрент
Скачать торрент
[ Размер 39.27 КБ / Просмотров 7 ]

Статус  
 
Размер  7.76 ГБ
Приватный: Нет (DHT включён)
.torrent скачан  0
Как залить торрент? | Как скачать Torrent? | Как смотреть и слушать онлайн?  


     Отправить личное сообщение
   
Страница 1 из 1
Показать сообщения за:  Поле сортировки  
Начать новую тему Ответить на тему

   Похожие торренты   Автор   Ответы   Просмотры   Последнее сообщение 
В этой теме нет новых непрочитанных сообщений. Скачать торрент Проверен Догма / Dogma (1999) BDRip 720p | D, 6 x A

в форуме 720p | 1080p, Размер: 7.44 ГБ, Здоровье: 100%

Гость

0
58|50

42
115

03 янв 2015, 16:59

Гость Перейти к последнему сообщению

В этой теме нет новых непрочитанных сообщений. Скачать торрент Проверен Инферно / Inferno (1999) BDRip 720p | P2, A3

в форуме 720p | 1080p, Размер: 6.77 ГБ, Здоровье: 100%

Гость

0
19|10

139
80

17 окт 2015, 18:27

Гость Перейти к последнему сообщению

В этой теме нет новых непрочитанных сообщений. Скачать торрент Тит – правитель Рима / Titus (1999) BDRip 720p

в форуме 720p | 1080p, Размер: 8.16 ГБ, Здоровье: 0%

Anonymous

0
0|0

29
0

22 янв 2014, 22:12

Anonymous Перейти к последнему сообщению

В этой теме нет новых непрочитанных сообщений. Скачать торрент 13-й Воин / The 13th Warrior (1999) BDRip 720p | D, A

в форуме 720p | 1080p, Размер: 4.37 ГБ, Здоровье: 100%

Anonymous

0
17|1

45
367

13 апр 2014, 11:11

Anonymous Перейти к последнему сообщению

В этой теме нет новых непрочитанных сообщений. Скачать торрент Проверен Послание в бутылке / Message in a Bottle (1999) BDRip 720p | D, A

в форуме 720p | 1080p, Размер: 7.02 ГБ, Здоровье: 100%

Гость

0
31|20

196
49

13 май 2016, 23:48

Гость Перейти к последнему сообщению



Сейчас этот форум просматривают: нет зарегистрированных пользователей и гости: 1


Вы не можете начинать темы
Вы не можете отвечать на сообщения
Вы не можете редактировать свои сообщения
Вы не можете удалять свои сообщения
Вы не можете добавлять вложения

Перейти:  

!ВНИМАНИЕ!
 Ресурс не предоставляет электронные версии произведений, а занимается лишь коллекционированием и каталогизацией ссылок, присылаемых и публикуемых на форуме нашими читателями. Если вы являетесь правообладателем какого-либо представленного материала и не желаете чтобы ссылка на него находилась в нашем каталоге, свяжитесь с нами и мы незамедлительно удалим её. Файлы для обмена на трекере предоставлены пользователями сайта, и администрация не несёт ответственности за их содержание. Просьба не заливать файлы, защищенные авторскими правами, а также файлы нелегального содержания!