На всех торрентах на трекере установлена скидка на скачивание в размере 100 процентов(а).
 Возможность скачивания торрента НЕ зависит от ограничений при низком ратио, низком аплоаде, требуемом ратио или требуемом аплоаде.


Начать новую тему Ответить на тему
Статистика раздачи
Размер: 1.45 ГБ | Добавлен: 02 ноя 2013, 23:54 | Скачали: 0
Сидеров: 0  [0 байт/сек]    Личеров: 0  [0 байт/сек]
Пред. тема | След. тема 

Автор
Сообщение

СообщениеДобавлено: 02 ноя 2013, 23:54 

Название: Молодожены
Оригинальное название: Just Married
Год выхода: 2003
Жанр: мелодрама, комедия
Режиссер: Шон Леви

В ролях: Эштон Катчер, Бриттани Мерфи, Кристиан Кэйн, Дэвид Москоу, Монит Мазур, Дэвид Раш, Тэд Лакинбилл, Дэвид Агранов, Таран Киллэм, Рэймонд Дж. Бэрри

О фильме: Том, ведущий местной радиостанции, играя на пляже в американский футбол, неожиданно поражает мячом случайную жертву, которой оказывается Сара. После ее падения на пляжный песок между героями происходит продолжительный обмен извинениями, а уже через несколько недель Том и Сара жизни друг без друга представить не могут, о чем и рассказывают своим родителям.

В то время как семья Тома ничем особенным похвастаться не может, семья Сары является весьма влиятельной, и ей принадлежит ряд промышленных объектов и спортивных команд в штате. После некоторой оппозиции со стороны отца Сары влюбленной паре все же дается добро. После чего Тому не остается ничего другого, как заказать билеты на поездку в Европу, где молодожены и собираются провести медовый месяц.



Страна: США, Германия
Продолжительность: 01:34:46
Перевод: Дублированный


Кодек: h.264
Качество: BDRip-AVC
Видео: 1024x554 (16:9), 23.976 fps, 1805 kbps, 0.133 bit/pixel
Звук: 48 kHz, AC3 5.1, 384.00 kbps

&

Общее
Уникальный идентификатор : 219809041422107597390615653008748824235 (0xA55DAE7645A8CBBBB2CABCCE73D7C6AB)
Полное имя : D:Just Married.2003.BDRip-AVC.mkv
Формат : Matroska
Версия формата : Version 2
Размер файла : 1,45 Гбайт
Продолжительность : 1 ч. 34 м.
Общий поток : 2191 Кбит/сек
Название фильма : Молодожены / Just Married (2003) BDRip-AVC rip by Rulya74
Дата кодирования : UTC 2012-12-07 17:22:00
Программа кодирования : mkvmerge v5.7.0 ('The Whirlwind') built on Jul 8 2012 20:08:51
Библиотека кодирования : libebml v1.2.3 + libmatroska v1.3.0

Видео
Идентификатор : 1
Формат : AVC
Формат/Информация : Advanced Video Codec
Профиль формата : High@L4.1
Параметр CABAC формата : Да
Параметр ReFrames формата : 14 кадров
Идентификатор кодека : V_MPEG4/ISO/AVC
Продолжительность : 1 ч. 34 м.
Битрейт : 1805 Кбит/сек
Ширина : 1024 пикселя
Высота : 554 пикселя
Соотношение сторон : 16:9
Частота кадров : 23,976 кадра/сек
Цветовое пространство : YUV
Субдискретизация насыщенности : 4:2:0
Битовая глубина : 8 бит
Тип развёртки : Прогрессивная
Бит/(Пиксели*Кадры) : 0.133
Размер потока : 1,17 Гбайт (80%)
Библиотека кодирования : x264 core 129 r2230 1cffe9f
Настройки программы : cabac=1 / ref=14 / deblock=1:-1:-1 / analyse=0x3:0x133 / me=umh / subme=10 / psy=1 / psy_rd=1.06:0.03 / mixed_ref=1 / me_range=40 / chroma_me=1 / trellis=2 / 8x8dct=1 / cqm=0 / deadzone=21,11 / fast_pskip=0 / chroma_qp_offset=-3 / threads=2 / lookahead_threads=1 / sliced_threads=0 / nr=0 / decimate=1 / interlaced=0 / bluray_compat=0 / constrained_intra=0 / bframes=7 / b_pyramid=2 / b_adapt=2 / b_bias=0 / direct=3 / weightb=1 / open_gop=0 / weightp=2 / keyint=240 / keyint_min=23 / scenecut=40 / intra_refresh=0 / rc_lookahead=40 / rc=2pass / mbtree=1 / bitrate=1805 / ratetol=1.0 / qcomp=0.60 / qpmin=10 / qpmax=51 / qpstep=4 / cplxblur=20.0 / qblur=0.5 / ip_ratio=1.40 / aq=2:1.00
Default : Да
Forced : Нет

Аудио
Идентификатор : 2
Формат : AC-3
Формат/Информация : Audio Coding 3
Расширение режима : CM (complete main)
Идентификатор кодека : A_AC3
Продолжительность : 1 ч. 34 м.
Вид битрейта : Постоянный
Битрейт : 384 Кбит/сек
Каналы : 6 каналов
Расположение каналов : Front: L C R, Side: L R, LFE
Частота : 48,0 КГц
Битовая глубина : 16 бит
Метод сжатия : С потерями
Размер потока : 260 Мбайт (18%)
Заголовок : Дублированный
Язык : Russian
Default : Да
Forced : Нет

загрузка...
Правила, инструкции, FAQ!!!
Торрент  Добавлен [02 ноя 2013, 23:54] Скачать торрент
Скачать торрент
[ Размер 14.92 КБ / Просмотров 9 ]

Статус  
 
Размер  1.45 ГБ
Приватный: Нет (DHT включён)
.torrent скачан  0
Как залить торрент? | Как скачать Torrent? | Как смотреть и слушать онлайн?  


     Отправить личное сообщение
   
Страница 1 из 1
Показать сообщения за:  Поле сортировки  
Начать новую тему Ответить на тему

   Похожие торренты   Автор   Ответы   Просмотры   Последнее сообщение 
В этой теме нет новых непрочитанных сообщений. Скачать торрент Молодожены / Just Married (Шон Леви / Shawn Levy) [2003, мелодрама, комедия, BDRip] Dub (CEE) + Original + Subs (Rus, Eng)

в форуме Драмы, Мелодрамы, Размер: 1.71 ГБ, Здоровье: 100%

Anonymous

0
5|2

259
0

22 апр 2014, 11:39

Anonymous Перейти к последнему сообщению

В этой теме нет новых непрочитанных сообщений. Скачать торрент Проверен Замужем за мафией / Married to the Mob (1988) BDRip 1080p | D, P, P2, A

в форуме 720p | 1080p, Размер: 11.65 ГБ, Здоровье: 81%

Гость

0
27|33

32
36

18 ноя 2016, 21:42

Гость Перейти к последнему сообщению

В этой теме нет новых непрочитанных сообщений. Скачать торрент Проверен Замужем за мафией / Married to the Mob (1988) BDRip 720p | P2, A

в форуме 720p | 1080p, Размер: 8.94 ГБ, Здоровье: 100%

Anonymous

0
2|1

38
110

24 окт 2014, 22:04

Anonymous Перейти к последнему сообщению

В этой теме нет новых непрочитанных сообщений. Скачать торрент Проверен Замужем за мафией / Married to the Mob (1988) DVDRip

в форуме Комедии, Размер: 1.52 ГБ, Здоровье: 100%

Anonymous

0
25|23

35
55

24 окт 2014, 22:07

Anonymous Перейти к последнему сообщению

В этой теме нет новых непрочитанных сообщений. Скачать торрент Проверен Philip Roth / Филип Рот - I Married a Communist / Мой муж – коммунист! [2007, FB2/RTF/PDF, RUS]

в форуме Зарубежная литература (XX и XXI век), Размер: 3.63 МБ, Здоровье: 0%

Anonymous

0
0|0

0
0

08 сен 2016, 18:31

Anonymous Перейти к последнему сообщению



Сейчас этот форум просматривают: нет зарегистрированных пользователей и гости: 1


Вы не можете начинать темы
Вы не можете отвечать на сообщения
Вы не можете редактировать свои сообщения
Вы не можете удалять свои сообщения
Вы не можете добавлять вложения

Перейти:  

!ВНИМАНИЕ!
 Ресурс не предоставляет электронные версии произведений, а занимается лишь коллекционированием и каталогизацией ссылок, присылаемых и публикуемых на форуме нашими читателями. Если вы являетесь правообладателем какого-либо представленного материала и не желаете чтобы ссылка на него находилась в нашем каталоге, свяжитесь с нами и мы незамедлительно удалим её. Файлы для обмена на трекере предоставлены пользователями сайта, и администрация не несёт ответственности за их содержание. Просьба не заливать файлы, защищенные авторскими правами, а также файлы нелегального содержания!