На всех торрентах на трекере установлена скидка на скачивание в размере 100 процентов(а).
 Возможность скачивания торрента НЕ зависит от ограничений при низком ратио, низком аплоаде, требуемом ратио или требуемом аплоаде.


Начать новую тему Ответить на тему
Статистика раздачи
Размер: 4.32 ГБ | Добавлен: 01 ноя 2013, 07:54 | Скачали: 0
Сидеров: 0  [0 байт/сек]    Личеров: 0  [0 байт/сек]
Пред. тема | След. тема 

Автор
Сообщение

СообщениеДобавлено: 01 ноя 2013, 07:54 

Название: Примесь
Оригинальное название: Upstream Color
Год выхода: 2013
Жанр: драма, фантастика
Режиссер: Шэйн Кэррат
В ролях: Эми Сейметц, Шэйн Кэррат, Эндрю Сенсениг, Тьяго Мартинс, Кэти Кэррат

О фильме:
Картина расскажет о жизненном пути двоих: мужчины и его женщины. Их судьбы еще в самом своем начале сплетаются воедино для того, чтобы всю жизнь быть соединенными в одну. Они сплетаются и трансформируются в один цикл вечно молодого существа. Индивидуальность иллюзорна, она совсем не нужна героям. Однако злая судьба их разлучает и разрушает ценные жизни двух индивидуумов. Теперь только они сами смогут собрать свои жизни по маленьким фрагментам, которым удалось уцелеть после разрушительного влияния рока. Однако у героев имеется один верный помощник, которому не сможет противостоять ничто – это любовь. Любовь выведет их из запутанных лабиринтов жизни…



Выпущено: США / Hazazah Pictures, Orange Film, BNN TV
Продолжительность: 01:36:03
Озвучивание:
Любительское (многоголосое) [Юлия Реутова и Андрей Жариков]
Любительское (одноголосое) [Andi]


Формат: MKV
Качество: BDRip 720p [TayTO]
Видео: 4135 kb/s, 1280x546
Аудио:
Russian: [Юлия Реутова и Андрей Жариков]: AC3, 224 kb/s (2 ch)
Russian: [Andi]: AC3, 448 kb/s (6 ch)
English: DTS, 1510 kb/s (6 ch)
Субтитры: Russian [Dr.pro], English
Дополнительно: Сохранены оригинальные чаптеры как на Blu-Ray

Скачать: Сэмпл

Релиз группы:



General
Upstream Color.2013.BluRay.720p.Cinemania.mkv
Format : Matroska
Format version : Version 4 / Version 2
File size : 4.32 GiB
Duration : 1h 36mn
Overall bit rate : 6 444 Kbps
Movie name : CINEMANIA.CC
Encoded date : UTC 2013-07-26 18:32:48
Writing application : mkvmerge v6.3.0 ('You can't stop me!') built on Jun 28 2013 20:09:41
Writing library : libebml v1.3.0 + libmatroska v1.4.0

Video
ID : 1
Format : AVC
Format/Info : Advanced Video Codec
Format profile : High@L4.1
Format settings, CABAC : Yes
Format settings, ReFrames : 11 frames
Codec ID : V_MPEG4/ISO/AVC
Duration : 1h 36mn
Bit rate : 4 135 Kbps
Width : 1 280 pixels
Height : 546 pixels
Display aspect ratio : 2.35:1
Frame rate mode : Constant
Frame rate : 23.976 fps
Color space : YUV
Chroma subsampling : 4:2:0
Bit depth : 8 bits
Scan type : Progressive
Bits/(Pixel*Frame) : 0.247
Stream size : 2.77 GiB (64%)
Title : CINEMANIA.CC
Writing library : x264 core 132 r2309 3b1f1f7
Encoding settings : cabac=1 / ref=11 / deblock=1:-3:-3 / analyse=0x3:0x133 / me=tesa / subme=11 / psy=1 / psy_rd=1.10:0.00 / mixed_ref=1 / me_range=16 / chroma_me=1 / trellis=2 / 8x8dct=1 / cqm=0 / deadzone=21,11 / fast_pskip=0 / chroma_qp_offset=-2 / threads=12 / lookahead_threads=2 / sliced_threads=0 / nr=0 / decimate=1 / interlaced=0 / bluray_compat=0 / constrained_intra=0 / bframes=7 / b_pyramid=2 / b_adapt=2 / b_bias=0 / direct=3 / weightb=1 / open_gop=0 / weightp=2 / keyint=250 / keyint_min=23 / scenecut=40 / intra_refresh=0 / rc=crf / mbtree=0 / crf=16.1 / qcomp=0.75 / qpmin=0 / qpmax=69 / qpstep=4 / ip_ratio=1.40 / pb_ratio=1.30 / aq=1:0.70
Language : English
Default : Yes
Forced : No
Matrix coefficients : BT.709

Audio #1
ID : 2
Format : AC-3
Format/Info : Audio Coding 3
Mode extension : CM (complete main)
Format settings, Endianness : Big
Codec ID : A_AC3
Duration : 1h 36mn
Bit rate mode : Constant
Bit rate : 224 Kbps
Channel(s) : 2 channels
Channel positions : Front: L R
Sampling rate : 48.0 KHz
Bit depth : 16 bits
Compression mode : Lossy
Stream size : 154 MiB (3%)
Title : Юлия Реутова и Андрей Жариков
Language : Russian
Default : No
Forced : No

Audio #2
ID : 3
Format : AC-3
Format/Info : Audio Coding 3
Mode extension : CM (complete main)
Format settings, Endianness : Big
Codec ID : A_AC3
Duration : 1h 36mn
Bit rate mode : Constant
Bit rate : 448 Kbps
Channel(s) : 6 channels
Channel positions : Front: L C R, Side: L R, LFE
Sampling rate : 48.0 KHz
Bit depth : 16 bits
Compression mode : Lossy
Stream size : 308 MiB (7%)
Title : Andi
Language : Russian
Default : Yes
Forced : No

Audio #3
ID : 4
Format : DTS
Format/Info : Digital Theater Systems
Mode : 16
Format settings, Endianness : Big
Codec ID : A_DTS
Duration : 1h 36mn
Bit rate mode : Constant
Bit rate : 1 509 Kbps
Channel(s) : 6 channels
Channel positions : Front: L C R, Side: L R, LFE
Sampling rate : 48.0 KHz
Bit depth : 16 bits
Compression mode : Lossy
Stream size : 1.01 GiB (23%)
Language : English
Default : No
Forced : No

Text #1
ID : 5
Format : UTF-8
Codec ID : S_TEXT/UTF8
Codec ID/Info : UTF-8 Plain Text
Title : Dr.pro
Language : Russian
Default : No
Forced : No

Text #2
ID : 6
Format : UTF-8
Codec ID : S_TEXT/UTF8
Codec ID/Info : UTF-8 Plain Text
Language : English
Default : No
Forced : No

Menu
00:00:00.000 : en:00:00:00.000
00:07:34.204 : en:00:07:34.204
00:15:54.370 : en:00:15:54.370
00:25:48.255 : en:00:25:48.255
00:33:53.406 : en:00:33:53.406
00:41:44.752 : en:00:41:44.752
00:50:50.673 : en:00:50:50.673
00:59:08.962 : en:00:59:08.962
01:10:05.284 : en:01:10:05.284
01:14:58.744 : en:01:14:58.744
01:22:23.230 : en:01:22:23.230
01:29:08.635 : en:01:29:08.635
загрузка...
Правила, инструкции, FAQ!!!
Торрент  Добавлен [01 ноя 2013, 07:54] Скачать торрент
Скачать торрент
[ Размер 22.09 КБ / Просмотров 8 ]

Статус  
 
Размер  4.32 ГБ
Приватный: Нет (DHT включён)
.torrent скачан  0
Как залить торрент? | Как скачать Torrent? | Как смотреть и слушать онлайн?  


     Отправить личное сообщение
   
Страница 1 из 1
Показать сообщения за:  Поле сортировки  
Начать новую тему Ответить на тему

   Похожие торренты   Автор   Ответы   Просмотры   Последнее сообщение 
В этой теме нет новых непрочитанных сообщений. Скачать торрент Жизнь Адель / La vie d'Adèle - Chapitres 1 et 2 / Blue Is the Warmest Color (2013) BDRip 720p | L1

в форуме 720p | 1080p, Размер: 9.71 ГБ, Здоровье: 0%

Anonymous

0
0|0

14
0

20 фев 2014, 22:42

Anonymous Перейти к последнему сообщению

В этой теме нет новых непрочитанных сообщений. Скачать торрент Проверен [Lynda.com] The Art of Color Correction: Artistic Color Grading on the Timeline [June 2013, ENG]

в форуме Работа с видео, Размер: 1.55 ГБ, Здоровье: 0%

Anonymous

0
0|0

0
0

19 авг 2016, 22:39

Anonymous Перейти к последнему сообщению

В этой теме нет новых непрочитанных сообщений. Скачать торрент Проверен (Progressive Rock) Color - Color (1978) - 1999, FLAC (tracks+.cue) lossless

в форуме Progressive & Art-Rock, Размер: 335.88 МБ, Здоровье: 0%

Anonymous

0
0|0

3
0

30 авг 2016, 23:21

Anonymous Перейти к последнему сообщению

В этой теме нет новых непрочитанных сообщений. Скачать торрент Проверен Против течения / Swimming Upstream (2003) DVDRip | P

в форуме Драмы, Мелодрамы, Размер: 1.45 ГБ, Здоровье: 100%

Anonymous

0
29|11

47
62

18 янв 2015, 12:17

Anonymous Перейти к последнему сообщению

В этой теме нет новых непрочитанных сообщений. Скачать торрент Проверен (Hard Rock/Female Vocals) Color Three - Paint By Number - 2013, MP3, 320 kbps

в форуме Classic Rock & Hard Rock, Размер: 129.96 МБ, Здоровье: 0%

Anonymous

0
0|0

0
0

13 ноя 2016, 13:55

Anonymous Перейти к последнему сообщению



Сейчас этот форум просматривают: нет зарегистрированных пользователей и гости: 3


Вы не можете начинать темы
Вы не можете отвечать на сообщения
Вы не можете редактировать свои сообщения
Вы не можете удалять свои сообщения
Вы не можете добавлять вложения

Перейти:  

!ВНИМАНИЕ!
 Ресурс не предоставляет электронные версии произведений, а занимается лишь коллекционированием и каталогизацией ссылок, присылаемых и публикуемых на форуме нашими читателями. Если вы являетесь правообладателем какого-либо представленного материала и не желаете чтобы ссылка на него находилась в нашем каталоге, свяжитесь с нами и мы незамедлительно удалим её. Файлы для обмена на трекере предоставлены пользователями сайта, и администрация не несёт ответственности за их содержание. Просьба не заливать файлы, защищенные авторскими правами, а также файлы нелегального содержания!