На всех торрентах на трекере установлена скидка на скачивание в размере 100 процентов(а).
 Возможность скачивания торрента НЕ зависит от ограничений при низком ратио, низком аплоаде, требуемом ратио или требуемом аплоаде.


Начать новую тему Ответить на тему
Статистика раздачи
Размер: 6.68 ГБ | Добавлен: 28 окт 2013, 00:43 | Скачали: 0
Сидеров: 0  [0 байт/сек]    Личеров: 0  [0 байт/сек]
Пред. тема | След. тема 

Автор
Сообщение

СообщениеДобавлено: 28 окт 2013, 00:43 

Название: Лучшие дни впереди
Оригинальное название: Bright Days Ahead
Год выхода: 2013
Жанр: комедия, драма
Режиссер: Марион Верну
В ролях: Фанни Ардан, Патрик Шенэ, Жан-Франсуа Стевенен, Фанни Коттансон, Катрин Лашанс, Ален Коши, Мари Ривьер, Марк Шапито

О фильме:
Кто сказал, что уход на пенсию — это начало конца, а не новое начало? Каролина делает совсем не то, чего от неё ждут: заводит любовника, получает новые впечатления, нарушает установленные правила и, в конечном счёте, вновь становится хозяйкой своей жизни и переживает вторую молодость.



Выпущено: Франция
Продолжительность: 01:34:13
Озвучивание: Профессиональное (многоголосое)


Формат: MKV
Качество: BDRip 1080p [NERDHD]
Видео: 8454 kb/s, 1808x1080
Аудио: Russian: AC3, 192 kb/s (2 ch) / English: DTS, 1510 kb/s (6 ch)
Дополнительно: Сохранены оригинальные чаптеры как на Blu-Ray

Скачать: Сэмпл

Релиз группы:



General
Bright.Days.Ahead.2013.Blu.Ray.1080p.CINEMANIA.mkv
Format : Matroska
Format version : Version 4 / Version 2
File size : 6.68 GiB
Duration : 1h 34mn
Overall bit rate : 10.2 Mbps
Movie name : CINEMANIA.CC
Encoded date : UTC 2013-10-26 11:48:41
Writing application : mkvmerge v6.5.0 ('Isn't she lovely') built on Oct 20 2013 12:50:05
Writing library : libebml v1.3.0 + libmatroska v1.4.1

Video
ID : 1
Format : AVC
Format/Info : Advanced Video Codec
Format profile : High@L4.1
Format settings, CABAC : Yes
Format settings, ReFrames : 4 frames
Codec ID : V_MPEG4/ISO/AVC
Duration : 1h 34mn
Bit rate : 8 454 Kbps
Width : 1 808 pixels
Height : 1 080 pixels
Display aspect ratio : 1.674
Frame rate mode : Constant
Frame rate : 23.976 fps
Color space : YUV
Chroma subsampling : 4:2:0
Bit depth : 8 bits
Scan type : Progressive
Bits/(Pixel*Frame) : 0.181
Stream size : 5.43 GiB (81%)
Title : CINEMANIA.CC
Writing library : x264 core 138 r2358 9e941d1
Encoding settings : cabac=1 / ref=4 / deblock=1:0:0 / analyse=0x3:0x133 / me=umh / subme=8 / psy=1 / psy_rd=1.00:0.00 / mixed_ref=1 / me_range=16 / chroma_me=1 / trellis=1 / 8x8dct=1 / cqm=0 / deadzone=21,11 / fast_pskip=0 / chroma_qp_offset=-2 / threads=24 / lookahead_threads=4 / sliced_threads=0 / nr=0 / decimate=1 / interlaced=0 / bluray_compat=0 / constrained_intra=0 / bframes=3 / b_pyramid=2 / b_adapt=1 / b_bias=0 / direct=1 / weightb=1 / open_gop=0 / weightp=2 / keyint=250 / keyint_min=23 / scenecut=40 / intra_refresh=0 / rc=2pass / mbtree=0 / bitrate=8454 / ratetol=1.0 / qcomp=0.60 / qpmin=0 / qpmax=69 / qpstep=4 / cplxblur=20.0 / qblur=0.5 / ip_ratio=1.40 / pb_ratio=1.30 / aq=1:1.00
Language : English
Default : Yes
Forced : No

Audio #1
ID : 2
Format : AC-3
Format/Info : Audio Coding 3
Mode extension : CM (complete main)
Format settings, Endianness : Big
Codec ID : A_AC3
Duration : 1h 34mn
Bit rate mode : Constant
Bit rate : 192 Kbps
Channel(s) : 2 channels
Channel positions : Front: L R
Sampling rate : 48.0 KHz
Bit depth : 16 bits
Compression mode : Lossy
Stream size : 129 MiB (2%)
Title : online movies
Language : Russian
Default : Yes
Forced : Yes

Audio #2
ID : 3
Format : DTS
Format/Info : Digital Theater Systems
Mode : 16
Format settings, Endianness : Big
Codec ID : A_DTS
Duration : 1h 34mn
Bit rate mode : Constant
Bit rate : 1 509 Kbps
Channel(s) : 6 channels
Channel positions : Front: L C R, Side: L R, LFE
Sampling rate : 48.0 KHz
Bit depth : 24 bits
Compression mode : Lossy
Stream size : 1 017 MiB (15%)
Language : French
Default : No
Forced : No

Menu
00:00:00.000 : en:00:00:00.000
00:08:13.243 : en:00:08:13.243
00:22:25.135 : en:00:22:25.135
00:32:42.377 : en:00:32:42.377
00:41:19.602 : en:00:41:19.602
00:51:30.587 : en:00:51:30.587
01:03:25.677 : en:01:03:25.677
01:13:24.108 : en:01:13:24.108
01:21:05.694 : en:01:21:05.694
01:31:04.292 : en:01:31:04.292
загрузка...
Правила, инструкции, FAQ!!!
Торрент  Добавлен [28 окт 2013, 00:43] Скачать торрент
Скачать торрент
[ Размер 33.89 КБ / Просмотров 9 ]

Статус  
 
Размер  6.68 ГБ
Приватный: Нет (DHT включён)
.torrent скачан  0
Как залить торрент? | Как скачать Torrent? | Как смотреть и слушать онлайн?  


     Отправить личное сообщение
   
Страница 1 из 1
Показать сообщения за:  Поле сортировки  
Начать новую тему Ответить на тему

   Похожие торренты   Автор   Ответы   Просмотры   Последнее сообщение 
В этой теме нет новых непрочитанных сообщений. Скачать торрент Проверен Последние дни на Марсе / The Last Days on Mars (2013) BDRip 1080p | P

в форуме 720p | 1080p, Размер: 5.44 ГБ, Здоровье: 100%

Anonymous

0
39|4

33
407

27 сен 2014, 22:06

Anonymous Перейти к последнему сообщению

В этой теме нет новых непрочитанных сообщений. Скачать торрент Проверен Странные дни / Strange Days (1995) BDRip 1080p | P, A

в форуме 720p | 1080p, Размер: 14.95 ГБ, Здоровье: 0%

Гость

0
0|0

72
0

13 апр 2016, 23:23

Гость Перейти к последнему сообщению

В этой теме нет новых непрочитанных сообщений. Скачать торрент 500 дней лета / (500) Days of Summer (2009) BDRip 1080p

в форуме 720p | 1080p, Размер: 7.95 ГБ, Здоровье: 0%

Anonymous

0
0|0

24
0

05 фев 2014, 23:33

Anonymous Перейти к последнему сообщению

В этой теме нет новых непрочитанных сообщений. 3 дня на убийство / 3 Days to Kill (2014) BDRip 1080p| Чистый звук

в форуме Новинки кино, Размер: 6.81 ГБ, Здоровье: 100%

Anonymous

0
51|5

100
17

19 май 2014, 12:56

Anonymous Перейти к последнему сообщению

В этой теме нет новых непрочитанных сообщений. Скачать торрент Проверен Лунный свет 3: Дни вечности / Lichtmond 3: Days of Eternity (2014) BDRip 1080p от Ash61 | 3D-Video | halfOU

в форуме HD-Video в 3D, Размер: 7.66 ГБ, Здоровье: 100%

Anonymous

0
60|54

99
448

26 окт 2014, 20:28

Anonymous Перейти к последнему сообщению



Сейчас этот форум просматривают: нет зарегистрированных пользователей и гости: 1


Вы не можете начинать темы
Вы не можете отвечать на сообщения
Вы не можете редактировать свои сообщения
Вы не можете удалять свои сообщения
Вы не можете добавлять вложения

Перейти:  

!ВНИМАНИЕ!
 Ресурс не предоставляет электронные версии произведений, а занимается лишь коллекционированием и каталогизацией ссылок, присылаемых и публикуемых на форуме нашими читателями. Если вы являетесь правообладателем какого-либо представленного материала и не желаете чтобы ссылка на него находилась в нашем каталоге, свяжитесь с нами и мы незамедлительно удалим её. Файлы для обмена на трекере предоставлены пользователями сайта, и администрация не несёт ответственности за их содержание. Просьба не заливать файлы, защищенные авторскими правами, а также файлы нелегального содержания!