На всех торрентах на трекере установлена скидка на скачивание в размере 100 процентов(а).
 Возможность скачивания торрента НЕ зависит от ограничений при низком ратио, низком аплоаде, требуемом ратио или требуемом аплоаде.


Начать новую тему Ответить на тему
Статистика раздачи
Размер: 8.38 ГБ | Добавлен: 02 дек 2012, 01:51 | Скачали: 30
Сидеров: 14  [0 байт/сек]    Личеров: 3  [0 байт/сек]
Пред. тема | След. тема 

Автор
Сообщение

СообщениеДобавлено: 02 дек 2012, 01:44 

Название: Хаос
Год выхода: 2005
Жанр: Боевик, триллер, драма, криминал
Режиссер: Тони Гиглио
В ролях: Джейсон Стэйтем, Райан Филипп, Уэсли Снайпс, Генри Черни, Джастин Уоддэлл, Николас Лиа, Джессика Стин, Роб ЛаБелль, Джон Кассини, Дэймон Джонсон, Пол Перри, Киган Коннор Трейси, Наташа Мальте, Ти Олссон, Терри Чен, Майк Допуд, Мичаша Армстронг, Ким Хоуи, Гастон Ховард, Гарвин Кросс

О фильме:
Самым обычным утром банда грабителей захватывает банк и берет в заложники всех, кто в нем находится. Полиция окружает здание банка. Вожак банды Лоренц требует вызвать переговорщика, настаивая на том, что им может быть только детектив Коннерс. А так как Коннерс числится в полиции «на плохом счету», к нему приставляют напарника — новичка Деккера.
Пока Коннерс ведет переговоры, в банк врывается полицейский спецназ. В начавшемся хаосе грабителям удается смешаться с заложниками и выскользнуть из банка. Но самым странным оказалось то, что грабители не унесли с собой ни единого цента. А вскоре выясняется, что во время осады и перестрелки с банковских счетов компьютерным способом был снят миллиард долларов. Распутывая это дело, Коннерс и Деккер нащупывают нити заговора, ведущие на самый «верх»…



Страна: Канада, Великобритания, США
Студия: Chaotic Productions, Current Entertainment
Продолжительность: 01:46:21
Перевод: Дублированный + Оригинал

Формат: mkv
Кодек: x264
Качество: BDRip 1080p (источник: Blu-Ray Remux / 1080p)
Видео: 1920х814 (2.35:1), 10000 Kbps, 23.976 fps, 0.267 bit/pixel
Аудио #1: 48.0 kHz, AC3 Dolby Digital, 3/2 (L,C,R,l,r) + LFE ch, 640 kbps [Rus]
Аудио #2: 48.0 kHz, AC3 Dolby Digital, 3/2 (L,C,R,l,r) + LFE ch, 640 kbps [Eng]
Субтитры: Русские (форсированные, полные) , английские (полные, SDH)






x264 [info]: frame I:1185 Avg QP:14.81 size:169419
x264 [info]: frame P:37082 Avg QP:17.43 size: 80898
x264 [info]: frame B:114732 Avg QP:18.97 size: 41622
General
Unique ID : 233260677436260040049843342103802256601 (0xAF7C5F527A33C7EFAFCA37C090679CD9)
Complete name : D:Chaos.2005.x264.BDRip.1080p.mkv
Format : Matroska
Format version : Version 2
File size : 8.38 GiB
Duration : 1h 46mn
Overall bit rate : 11.2 Mbps
Encoded date : UTC 2012-11-30 00:00:36
Writing application : mkvmerge v5.8.0 ('No Sleep / Pillow') built on Sep 2 2012 15:37:04
Writing library : libebml v1.2.3 + libmatroska v1.3.0

Video
ID : 1
Format : AVC
Format/Info : Advanced Video Codec
Format profile : High@L4.1
Format settings, CABAC : Yes
Format settings, ReFrames : 5 frames
Codec ID : V_MPEG4/ISO/AVC
Duration : 1h 46mn
Bit rate : 10 000 Kbps
Width : 1 920 pixels
Height : 814 pixels
Display aspect ratio : 2.35:1
Frame rate mode : Constant
Frame rate : 23.976 fps
Color space : YUV
Chroma subsampling : 4:2:0
Bit depth : 8 bits
Scan type : Progressive
Bits/(Pixel*Frame) : 0.267
Stream size : 7.26 GiB (87%)
Writing library : x264 core 129 r2230 1cffe9f
Encoding settings : cabac=1 / ref=5 / deblock=1:-3:-3 / analyse=0x3:0x133 / me=tesa / subme=11 / psy=1 / psy_rd=1.00:0.10 / mixed_ref=1 / me_range=48 / chroma_me=1 / trellis=2 / 8x8dct=1 / cqm=0 / deadzone=21,11 / fast_pskip=0 / chroma_qp_offset=-3 / threads=6 / lookahead_threads=1 / sliced_threads=0 / nr=0 / decimate=0 / interlaced=0 / bluray_compat=0 / constrained_intra=0 / bframes=5 / b_pyramid=2 / b_adapt=2 / b_bias=0 / direct=3 / weightb=1 / open_gop=0 / weightp=2 / keyint=240 / keyint_min=23 / scenecut=40 / intra_refresh=0 / rc_lookahead=60 / rc=2pass / mbtree=1 / bitrate=10000 / ratetol=1.0 / qcomp=0.60 / qpmin=0 / qpmax=69 / qpstep=4 / cplxblur=20.0 / qblur=0.5 / ip_ratio=1.40 / aq=1:1.00
Language : English
Default : Yes
Forced : No

Audio #1
ID : 2
Format : AC-3
Format/Info : Audio Coding 3
Mode extension : CM (complete main)
Format settings, Endianness : Big
Codec ID : A_AC3
Duration : 1h 46mn
Bit rate mode : Constant
Bit rate : 640 Kbps
Channel(s) : 6 channels
Channel positions : Front: L C R, Side: L R, LFE
Sampling rate : 48.0 KHz
Bit depth : 16 bits
Compression mode : Lossy
Delay relative to video : 3ms
Stream size : 489 MiB (6%)
Title : AC3 5.1ch 640 kbps - Дубляж
Language : Russian
Default : Yes
Forced : No

Audio #2
ID : 3
Format : AC-3
Format/Info : Audio Coding 3
Mode extension : CM (complete main)
Format settings, Endianness : Big
Codec ID : A_AC3
Duration : 1h 46mn
Bit rate mode : Constant
Bit rate : 640 Kbps
Channel(s) : 6 channels
Channel positions : Front: L C R, Side: L R, LFE
Sampling rate : 48.0 KHz
Bit depth : 16 bits
Compression mode : Lossy
Stream size : 489 MiB (6%)
Title : AC3 5.1ch 640 kbps - Английский
Language : English
Default : No
Forced : No

Text #1
ID : 4
Format : UTF-8
Codec ID : S_TEXT/UTF8
Codec ID/Info : UTF-8 Plain Text
Title : Русские (форсированные)
Language : Russian
Default : Yes
Forced : No

Text #2
ID : 5
Format : UTF-8
Codec ID : S_TEXT/UTF8
Codec ID/Info : UTF-8 Plain Text
Title : Русские (полные)
Language : Russian
Default : No
Forced : No

Text #3
ID : 6
Format : UTF-8
Codec ID : S_TEXT/UTF8
Codec ID/Info : UTF-8 Plain Text
Title : Английские (полные)
Language : English
Default : No
Forced : No

Text #4
ID : 7
Format : UTF-8
Codec ID : S_TEXT/UTF8
Codec ID/Info : UTF-8 Plain Text
Title : Английские (SDH)
Language : English
Default : No
Forced : No

Menu
00:00:00.000 : ru:Show Them
00:04:39.404 : ru:Desperate Chase
00:10:29.128 : ru:Forced Entry
00:20:36.526 : ru:Even If We Get Out
00:26:19.578 : ru:Don't Stop!
00:31:17.000 : ru:This Way
00:39:13.184 : ru:No Looking Back
00:45:44.408 : ru:Turn Up the Music!
00:52:29.896 : ru:Preparations
00:57:13.596 : ru:Hunger
01:05:02.481 : ru:The Cripple
01:13:19.186 : ru:Working Girls
01:17:47.829 : ru:What Next?
01:25:33.169 : ru:No Need to Panic
01:36:34.288 : ru:The City
01:43:03.635 : ru:Credits
загрузка...
Правила, инструкции, FAQ!!!
Торрент  Добавлен [02 дек 2012, 01:51] Скачать торрент
Скачать торрент
[ Размер 21.63 КБ / Просмотров 16 ]

Статус
Проверен 
 
Размер  8.38 ГБ
Приватный: Нет (DHT включён)
.torrent скачан  30
Как залить торрент? | Как скачать Torrent? | Как смотреть и слушать онлайн?  


     Отправить личное сообщение
   
Страница 1 из 1
Показать сообщения за:  Поле сортировки  
Начать новую тему Ответить на тему

   Похожие торренты   Автор   Ответы   Просмотры   Последнее сообщение 
В этой теме нет новых непрочитанных сообщений. Скачать торрент Проверен Хаос / Chaos (2005) BDRip 720p | D, P2, A

в форуме 720p | 1080p, Размер: 3.85 ГБ, Здоровье: 100%

Anonymous

0
62|21

43
141

26 мар 2015, 21:16

Anonymous Перейти к последнему сообщению

В этой теме нет новых непрочитанных сообщений. Скачать торрент Проверен Версальский роман: Небольшой хаос / A Little Chaos (2014) WEB-DL 1080p | iTunes

в форуме 720p | 1080p, Размер: 4.23 ГБ, Здоровье: 100%

Гость

0
570|463

89
202

17 авг 2015, 23:18

Гость Перейти к последнему сообщению

В этой теме нет новых непрочитанных сообщений. Скачать торрент Хаос / Chaos [2005 г., Боевик / Детектив / Драма / Триллер, DVDRip]

в форуме Боевики, Размер: 1.37 ГБ, Здоровье: 100%

Anonymous

0
5|1

44
0

10 фев 2014, 13:05

Anonymous Перейти к последнему сообщению

В этой теме нет новых непрочитанных сообщений. Скачать торрент Проверен Phil Hine / Фил Хайн - Condensed Chaos: An Introduction to Chaos Magic / Сжатый Хаос: введение в Магию Хаоса [1996, PDF, ENG / RUS]

в форуме Эзотерика, гадания, магия, фен-шуй, Размер: 34.94 МБ, Здоровье: 100%

Anonymous

0
27|0

3
1

28 авг 2016, 22:14

Anonymous Перейти к последнему сообщению

В этой теме нет новых непрочитанных сообщений. Скачать торрент Проверен Phil Hine / Фил Хайн - Prime Chaos: Adventures in Chaos Magic / Первичный Хаос: Приключения в Магии Хаоса [2006, DOC / PDF, ENG]

в форуме Эзотерика, гадания, магия, фен-шуй, Размер: 2.23 МБ, Здоровье: 100%

Anonymous

0
21|0

11
1

28 авг 2016, 22:07

Anonymous Перейти к последнему сообщению



Сейчас этот форум просматривают: нет зарегистрированных пользователей и гости: 1


Вы не можете начинать темы
Вы не можете отвечать на сообщения
Вы не можете редактировать свои сообщения
Вы не можете удалять свои сообщения
Вы не можете добавлять вложения

Перейти:  

!ВНИМАНИЕ!
 Ресурс не предоставляет электронные версии произведений, а занимается лишь коллекционированием и каталогизацией ссылок, присылаемых и публикуемых на форуме нашими читателями. Если вы являетесь правообладателем какого-либо представленного материала и не желаете чтобы ссылка на него находилась в нашем каталоге, свяжитесь с нами и мы незамедлительно удалим её. Файлы для обмена на трекере предоставлены пользователями сайта, и администрация не несёт ответственности за их содержание. Просьба не заливать файлы, защищенные авторскими правами, а также файлы нелегального содержания!