На всех торрентах на трекере установлена скидка на скачивание в размере 100 процентов(а).
 Возможность скачивания торрента НЕ зависит от ограничений при низком ратио, низком аплоаде, требуемом ратио или требуемом аплоаде.


Начать новую тему Ответить на тему
Статистика раздачи
Размер: 5.77 ГБ | Добавлен: 27 окт 2013, 04:09 | Скачали: 119
Сидеров: 207  [0 байт/сек]    Личеров: 8  [0 байт/сек]
Пред. тема | След. тема 

Автор
Сообщение

СообщениеДобавлено: 27 окт 2013, 04:09 

Информация о фильме
    Русское название: Господин Никто
    Оригинальное название: Mr. Nobody
    Год выхода: 2009
    Жанр: Фантастика, фэнтези, драма, мелодрама
    Режиссер: Жако Ван Дормель
    Выпущено: Германия, Канада, Франция, Бельгия
    Продолжительность: 02:35:36
    Перевод: Профессиональный (многоголосый закадровый)
    В ролях: Джаред Лето, Сара Полли, Дайан Крюгер, Лин Дэн Пэм, Рис Иванс, Наташа Литтл, Тоби Регбо, Джуно Темпл, Клер Стоун, Томас Бирн


Сюжет фильма
    Проснувшийся немощным стариком Немо Никто оказывается последним смертным в гротескном будущем. Все люди уже давно бессмертны и с удовольствием наблюдают за телешоу, где главная звезда - дряхлый и безумный старик Немо, доживающий свои последние дни. Накануне конца к нему приходит журналист, и Немо рассказывает ему свою историю перескакивая из одной жизни в другую, параллельную, несколько раз за рассказ успев умереть.


16+

Файл
    Качество: BDRip 720p (исходник Blu-ray Remux)
    Видео: 1280x544, 4408 Кбит/сек, 24,000 кадр/сек, AVC, x264, High@L4.1, 2.35:1, 0.264 Бит/[Пиксели*Кадры], 2pass
    Аудио 1: AC-3, 448 Кбит/сек, 6 канала(ов), 48,0 КГц - Многоголосый закадровый / Русский
    Аудио 2: AC-3, 448 Кбит/сек, 6 канала(ов), 48,0 КГц - Оригинал / Английский
    Субтитры: Русские | Полные, Английские | Полные
    Чаптеры: Есть



Автор Рипа: Сообщество:



Format : Matroska
Format version : Version 2
File size : 5.77 GiB
Duration : 2h 35mn
Overall bit rate : 5 306 Kbps
Movie name : Господин Никто.(2009).BDRip.720p.[envy]
Encoded date : UTC 2013-10-26 18:00:24
Writing application : mkvmerge v5.8.0 ('No Sleep / Pillow') built on Sep 2 2012 15:37:04
Writing library : libebml v1.2.3 + libmatroska v1.3.0

Video
ID : 1
Format : AVC
Format/Info : Advanced Video Codec
Format profile : High@L4.1
Format settings, CABAC : Yes
Format settings, ReFrames : 11 frames
Codec ID : V_MPEG4/ISO/AVC
Duration : 2h 35mn
Bit rate : 4 408 Kbps
Width : 1 280 pixels
Height : 544 pixels
Display aspect ratio : 2.35:1
Frame rate mode : Constant
Frame rate : 24.000 fps
Color space : YUV
Chroma subsampling : 4:2:0
Bit depth : 8 bits
Scan type : Progressive
Bits/(Pixel*Frame) : 0.264
Stream size : 4.68 GiB (81%)
Title : Господин Никто.(2009).BDRip.720p.[envy]
Writing library : x264 core 138 r2358 9e941d1
Encoding settings : cabac=1 / ref=11 / deblock=1:-3:-3 / analyse=0x3:0x133 / me=umh / subme=11 / psy=1 / psy_rd=1.00:0.00 / mixed_ref=1 / me_range=32 / chroma_me=1 / trellis=2 / 8x8dct=1 / cqm=0 / deadzone=21,11 / fast_pskip=0 / chroma_qp_offset=-2 / threads=12 / lookahead_threads=1 / sliced_threads=0 / nr=0 / decimate=1 / interlaced=0 / bluray_compat=0 / constrained_intra=0 / bframes=6 / b_pyramid=2 / b_adapt=2 / b_bias=0 / direct=3 / weightb=1 / open_gop=0 / weightp=2 / keyint=240 / keyint_min=24 / scenecut=40 / intra_refresh=0 / rc=2pass / mbtree=0 / bitrate=4408 / ratetol=2.0 / qcomp=0.60 / qpmin=0 / qpmax=69 / qpstep=4 / cplxblur=20.0 / qblur=0.5 / ip_ratio=1.40 / pb_ratio=1.30 / aq=1:0.80
Language : English
Default : Yes
Forced : No

Audio #1
ID : 2
Format : AC-3
Format/Info : Audio Coding 3
Mode extension : CM (complete main)
Format settings, Endianness : Big
Codec ID : A_AC3
Duration : 2h 35mn
Bit rate mode : Constant
Bit rate : 448 Kbps
Channel count : 6 channels
Channel positions : Front: L C R, Side: L R, LFE
Sampling rate : 48.0 KHz
Bit depth : 16 bits
Compression mode : Lossy
Stream size : 499 MiB (8%)
Title : Многоголосый закадровый
Language : Russian
Default : Yes
Forced : No

Audio #2
ID : 3
Format : AC-3
Format/Info : Audio Coding 3
Mode extension : CM (complete main)
Format settings, Endianness : Big
Codec ID : A_AC3
Duration : 2h 35mn
Bit rate mode : Constant
Bit rate : 448 Kbps
Channel count : 6 channels
Channel positions : Front: L C R, Side: L R, LFE
Sampling rate : 48.0 KHz
Bit depth : 16 bits
Compression mode : Lossy
Stream size : 499 MiB (8%)
Title : Оригинал
Language : English
Default : No
Forced : No

Text #1
ID : 4
Format : UTF-8
Codec ID : S_TEXT/UTF8
Codec ID/Info : UTF-8 Plain Text
Title : Полные
Language : Russian
Default : No
Forced : No

Text #2
ID : 5
Format : UTF-8
Codec ID : S_TEXT/UTF8
Codec ID/Info : UTF-8 Plain Text
Title : Full
Language : English
Default : No
Forced : No

Menu
00:00:00.000 : :Chapter 01
00:15:54.416 : :Chapter 02
00:22:54.000 : :Chapter 03
00:31:15.916 : :Chapter 04
00:45:03.541 : :Chapter 05
01:02:07.791 : :Chapter 06
01:13:36.250 : :Chapter 07
01:27:05.583 : :Chapter 08
01:40:49.833 : :Chapter 09
01:53:38.916 : :Chapter 10
02:15:11.000 : :Chapter 11
02:29:09.791 : :Chapter 12
загрузка...
Правила, инструкции, FAQ!!!
Торрент  Добавлен [27 окт 2013, 04:09] Скачать торрент
Скачать торрент
[ Размер 29.26 КБ / Просмотров 10 ]

Статус  
 
Размер  5.77 ГБ
Приватный: Нет (DHT включён)
.torrent скачан  119
Как залить торрент? | Как скачать Torrent? | Как смотреть и слушать онлайн?  


     Отправить личное сообщение
   
Страница 1 из 1
Показать сообщения за:  Поле сортировки  
Начать новую тему Ответить на тему

   Похожие торренты   Автор   Ответы   Просмотры   Последнее сообщение 
В этой теме нет новых непрочитанных сообщений. Скачать торрент Проверен [iPhone] Господин Никто / Mr. Nobody (Жако Ван Дормель / Jaco van Dormael) [2009, фантастика, мелодрама, драма, HDRip, 480x208] MVO (Расширенная версия / Extended Cut)

в форуме Фильмы для iPod, iPhone, iPad, Размер: 855.62 МБ, Здоровье: 100%

Гость

0
3|1

20
0

11 май 2015, 01:40

Гость Перейти к последнему сообщению

В этой теме нет новых непрочитанных сообщений. Скачать торрент Ангелы и Демоны / Angels & Demons (2009) BDRip 720p | Extended Cut

в форуме 720p | 1080p, Размер: 8.36 ГБ, Здоровье: 100%

Anonymous

0
6|2

57
28

05 фев 2014, 22:30

Anonymous Перейти к последнему сообщению

В этой теме нет новых непрочитанных сообщений. Скачать торрент Проверен Команда «А» / The A-Team (2010) BDRip 720p | Extended Cut

в форуме 720p | 1080p, Размер: 5.29 ГБ, Здоровье: 100%

Гость

0
40|5

16
206

01 дек 2014, 17:17

Гость Перейти к последнему сообщению

В этой теме нет новых непрочитанных сообщений. Скачать торрент Код Да Винчи / The Da Vinci Code (2006) BDRip 720p | Extended Cut

в форуме 720p | 1080p, Размер: 7.36 ГБ, Здоровье: 100%

Anonymous

0
27|2

35
55

05 фев 2014, 21:37

Anonymous Перейти к последнему сообщению

В этой теме нет новых непрочитанных сообщений. Скачать торрент Проверен Дум / Doom (2005) BDRip 720p | Unrated Extended Edition | 60 fps

в форуме 720p | 1080p, Размер: 4.37 ГБ, Здоровье: 100%

Гость

0
53|10

139
457

19 дек 2014, 16:15

Гость Перейти к последнему сообщению



Сейчас этот форум просматривают: нет зарегистрированных пользователей и гости: 1


Вы не можете начинать темы
Вы не можете отвечать на сообщения
Вы не можете редактировать свои сообщения
Вы не можете удалять свои сообщения
Вы не можете добавлять вложения

Перейти:  

!ВНИМАНИЕ!
 Ресурс не предоставляет электронные версии произведений, а занимается лишь коллекционированием и каталогизацией ссылок, присылаемых и публикуемых на форуме нашими читателями. Если вы являетесь правообладателем какого-либо представленного материала и не желаете чтобы ссылка на него находилась в нашем каталоге, свяжитесь с нами и мы незамедлительно удалим её. Файлы для обмена на трекере предоставлены пользователями сайта, и администрация не несёт ответственности за их содержание. Просьба не заливать файлы, защищенные авторскими правами, а также файлы нелегального содержания!