На всех торрентах на трекере установлена скидка на скачивание в размере 100 процентов(а).
 Возможность скачивания торрента НЕ зависит от ограничений при низком ратио, низком аплоаде, требуемом ратио или требуемом аплоаде.


Начать новую тему Ответить на тему
Статистика раздачи
Размер: 8.04 ГБ | Добавлен: 26 окт 2013, 23:07 | Скачали: 0
Сидеров: 0  [0 байт/сек]    Личеров: 0  [0 байт/сек]
Пред. тема | След. тема 

Автор
Сообщение

СообщениеДобавлено: 26 окт 2013, 23:07 

Название ... : Мачете
Оригинальное название ... : Machete
Страна ... : США
Жанр ............. : Боевик | Триллер | Комеия
Режиссер ... : Этан Маникис, Роберт Родригес
Перевод ... : Дубляж (Профессиональный(Лицензия) + Оригинал (Английский)
Субтитры ... : Русские / Английские UTF-8 (full)
Навигация по главам...: есть

Роли озвучивали:

Дэнни Трехо .... Machete Cortez
Джессика Альба .... Sartana
Мишель Родригес .... Luz
Роберт Де Ниро ........... Senator John McLaughlin
Стивен Сигал .... Rogelio Torrez
Описание:

Во время покушения на сенатора опытный наемник Мачете обнаружил, что находится на мушке у снайпера. С трудом избежав смерти, он узнает, что его подставили собственные наниматели и теперь его целью является месть.




Год выхода ............. : 2010
Формат ................. : Mkv
Продолжительность ...... : 1 hour 44 mins 59 Secs
Битрейт .. : ~ 9 852 Kbps
Профиль формата.....: High/Level 4.1
Идентификатор кодека ....... : MPEG-4 AVC
Ширина ....... : 1280 Pixels
Высота ....... : 694 Pixels
Частота кадров ............ : 23.976 fps
Соотношение сторон ........ : 1.85:1
Аудио кодек /Битрейт ....... : AC3 / 448 Kbps
Канальность / Частота ..... : 6 channels / 48.0 KHz
Исходник ......... : 1080p Blu-ray AVC DTS-HD MA 5.1-Voland_

Релиз группа: | by AVT83

x264 [info]: frame I:1662 Avg QP:18.31 size:151802
x264 [info]: frame P:31044 Avg QP:19.48 size: 85204
x264 [info]: frame B:118325 Avg QP:21.71 size: 42513
x264 [info]: consecutive B-frames: 2.1% 1.8% 7.5% 14.9% 15.8% 45.9% 8.8% 3.3%
--------------------------------------------------------------------------------
Format : Matroska
Format version : Version 2
File size : 8.04 GiB
Duration : 1h 44mn
Overall bit rate : 11.0 Mbps
Movie name : avt83@DHT-Movies
Encoded date : UTC 2013-10-24 16:00:26
Writing application : mkvmerge v4.0.0 ('The Stars were mine') сборка от Jun 6 2010 16:18:42
Writing library : libebml v1.0.0 + libmatroska v1.0.0

Video
ID : 1
Format : AVC
Format/Info : Advanced Video Codec
Format profile : High@L4.1
Format settings, CABAC : Yes
Format settings, ReFrames : 10 frames
Codec ID : V_MPEG4/ISO/AVC
Duration : 1h 44mn
Bit rate : 9 852 Kbps
Width : 1 280 pixels
Height : 694 pixels
Display aspect ratio : 1.85:1
Frame rate mode : Constant
Frame rate : 23.976 fps
Color space : YUV
Chroma subsampling : 4:2:0
Bit depth : 8 bits
Scan type : Progressive
Bits/(Pixel*Frame) : 0.463
Stream size : 7.22 GiB (90%)
Writing library : x264 core 138 r2359+704+48 3f879a0 tMod [8-bit@all X86]
Encoding settings : cabac=1 / ref=10 / deblock=1:-3:-3 / analyse=0x3:0x113 / me=umh / subme=11 / psy=1 / fade_compensate=0.00 / psy_rd=1.07:0.04 / mixed_ref=1 / me_range=24 / chroma_me=1 / trellis=2 / 8x8dct=1 / cqm=0 / deadzone=21,11 / fast_pskip=0 / chroma_qp_offset=-3 / threads=12 / lookahead_threads=2 / sliced_threads=0 / nr=0 / decimate=1 / interlaced=0 / bluray_compat=0 / constrained_intra=0 / fgo=0 / bframes=7 / b_pyramid=2 / b_adapt=2 / b_bias=0 / direct=1 / weightb=1 / open_gop=0 / weightp=2 / keyint=240 / keyint_min=23 / scenecut=40 / intra_refresh=0 / rc_lookahead=40 / rc=crf / mbtree=0 / crf=18.5000 / qcomp=0.60 / qpmin=0:0:0 / qpmax=69:69:69 / qpstep=4 / vbv_maxrate=50000 / vbv_bufsize=62500 / crf_max=0.0 / nal_hrd=none / ip_ratio=1.40 / pb_ratio=1.30 / aq=2:1.00 / aq-sensitivity=10.00 / aq-factor=1.00:1.00:1.00 / aq2=0 / aq3=0
Language : English
Default : No
Forced : No

Audio #1
ID : 2
Format : AC-3
Format/Info : Audio Coding 3
Mode extension : CM (complete main)
Format settings, Endianness : Big
Codec ID : A_AC3
Duration : 1h 44mn
Bit rate mode : Constant
Bit rate : 448 Kbps
Channel count : 6 channels
Channel positions : Front: L C R, Side: L R, LFE
Sampling rate : 48.0 KHz
Bit depth : 16 bits
Compression mode : Lossy
Stream size : 336 MiB (4%)
Title : Дубляж
Language : Russian
Default : Yes
Forced : No

Audio #2
ID : 3
Format : AC-3
Format/Info : Audio Coding 3
Mode extension : CM (complete main)
Format settings, Endianness : Big
Codec ID : A_AC3
Duration : 1h 44mn
Bit rate mode : Constant
Bit rate : 448 Kbps
Channel count : 6 channels
Channel positions : Front: L C R, Side: L R, LFE
Sampling rate : 48.0 KHz
Bit depth : 16 bits
Compression mode : Lossy
Stream size : 336 MiB (4%)
Title : Оригинал
Language : English
Default : No
Forced : No

Text #1
ID : 4
Format : UTF-8
Codec ID : S_TEXT/UTF8
Codec ID/Info : UTF-8 Plain Text
Title : full
Language : Russian
Default : Yes
Forced : No

Text #2
ID : 5
Format : UTF-8
Codec ID : S_TEXT/UTF8
Codec ID/Info : UTF-8 Plain Text
Title : full
Language : English
Default : No
Forced : No

Menu
00:00:00.000 : en:00:00:00.000
00:06:07.951 : en:00:06:07.951
00:07:43.254 : en:00:07:43.254
00:12:39.050 : en:00:12:39.050
00:16:16.100 : en:00:16:16.100
00:23:05.217 : en:00:23:05.217
00:27:21.348 : en:00:27:21.348
00:29:07.371 : en:00:29:07.371
00:34:02.457 : en:00:34:02.457
00:37:53.646 : en:00:37:53.646
00:39:47.260 : en:00:39:47.260
00:44:11.983 : en:00:44:11.983
00:47:41.192 : en:00:47:41.192
00:50:52.967 : en:00:50:52.967
00:53:12.815 : en:00:53:12.815
00:57:32.532 : en:00:57:32.532
00:59:40.577 : en:00:59:40.577
01:03:48.116 : en:01:03:48.116
01:07:57.240 : en:01:07:57.240
01:12:05.446 : en:01:12:05.446
01:15:04.208 : en:01:15:04.208
01:21:37.643 : en:01:21:37.643
01:24:04.748 : en:01:24:04.748
01:25:50.354 : en:01:25:50.354
01:28:04.779 : en:01:28:04.779
01:33:56.548 : en:01:33:56.548
01:38:01.918 : en:01:38:01.918
01:40:47.458 : en:01:40:47.458
01:44:58.959 : en:01:44:58.959

загрузка...
Правила, инструкции, FAQ!!!
Торрент  Добавлен [26 окт 2013, 23:07] Скачать торрент
Скачать торрент
[ Размер 40.63 КБ / Просмотров 5 ]

Статус  
 
Размер  8.04 ГБ
Приватный: Нет (DHT включён)
.torrent скачан  0
Как залить торрент? | Как скачать Torrent? | Как смотреть и слушать онлайн?  


     Отправить личное сообщение
   
Страница 1 из 1
Показать сообщения за:  Поле сортировки  
Начать новую тему Ответить на тему

   Похожие торренты   Автор   Ответы   Просмотры   Последнее сообщение 
В этой теме нет новых непрочитанных сообщений. Скачать торрент Мачете убивает / Machete Kills (2013) HDRip | Лицензия

в форуме Боевики, Размер: 1.37 ГБ, Здоровье: 0%

Anonymous

0
0|0

28
0

09 дек 2013, 06:15

Anonymous Перейти к последнему сообщению

В этой теме нет новых непрочитанных сообщений. Скачать торрент Проверен (Traditional Heavy Metal) Red Machete - Red Machete - 1988, MP3, 320 kbps

в форуме Heavy, Power, Progressive (Metal), Размер: 87.83 МБ, Здоровье: 100%

Anonymous

0
5|0

3
0

09 окт 2016, 13:28

Anonymous Перейти к последнему сообщению

В этой теме нет новых непрочитанных сообщений. Скачать торрент Проверен (Rock) Мачете - Мачете - 2012, MP3, 320 kbps

в форуме Русский Рок, Размер: 110.91 МБ, Здоровье: 100%

Anonymous

0
34|11

0
0

23 авг 2016, 10:46

Anonymous Перейти к последнему сообщению

В этой теме нет новых непрочитанных сообщений. Скачать торрент Проверен Мачете - Мачете (2012) [MP3|320 кб/с]<Рок>

в форуме Русский Рок, Размер: 110.91 МБ, Здоровье: 100%

Anonymous

0
6|1

19
0

13 июн 2014, 08:02

Anonymous Перейти к последнему сообщению

В этой теме нет новых непрочитанных сообщений. Скачать торрент Проверен Feuertanz Festival 2010 (Ignis Fatuu, Folkstone, Wutas, Fejd, Furunkulus, Feuerschwanz, Omnia, Subway to Sally, Eluveitie) [2010, Folk Metal, BDRip 720p]

в форуме Концерты (HD-Video), Размер: 5.42 ГБ, Здоровье: 100%

Anonymous

0
7|2

1
0

23 окт 2016, 16:06

Anonymous Перейти к последнему сообщению



Сейчас этот форум просматривают: нет зарегистрированных пользователей и гости: 1


Вы не можете начинать темы
Вы не можете отвечать на сообщения
Вы не можете редактировать свои сообщения
Вы не можете удалять свои сообщения
Вы не можете добавлять вложения

Перейти:  

!ВНИМАНИЕ!
 Ресурс не предоставляет электронные версии произведений, а занимается лишь коллекционированием и каталогизацией ссылок, присылаемых и публикуемых на форуме нашими читателями. Если вы являетесь правообладателем какого-либо представленного материала и не желаете чтобы ссылка на него находилась в нашем каталоге, свяжитесь с нами и мы незамедлительно удалим её. Файлы для обмена на трекере предоставлены пользователями сайта, и администрация не несёт ответственности за их содержание. Просьба не заливать файлы, защищенные авторскими правами, а также файлы нелегального содержания!