На всех торрентах на трекере установлена скидка на скачивание в размере 100 процентов(а).
 Возможность скачивания торрента НЕ зависит от ограничений при низком ратио, низком аплоаде, требуемом ратио или требуемом аплоаде.


Начать новую тему Ответить на тему
Статистика раздачи
Размер: 1.94 ГБ | Добавлен: 26 окт 2013, 20:15 | Скачали: 0
Сидеров: 0  [0 байт/сек]    Личеров: 0  [0 байт/сек]
Пред. тема | След. тема 

Автор
Сообщение

СообщениеДобавлено: 26 окт 2013, 20:15 

Название: Наемный убийца
Оригинальное название: Bounty Killer
Год выхода: 2013
Жанр: Боевик
Режиссер: Генри Сэйн

В ролях: Мэттью Мэрсден, Кристанна Локен, Кристиан Питре, Барак Хардли, Абрахам Бенруби, Гэри Бьюзи, Беверли Д’Анджело, Ив, Кевин МакНэлли, Алекса Вега, Джолин Андерсен, Чести Баллестерос, Ивар Броггер, Тайра Колар, Уилл Коллье, Робби Дэвис, Винс Дйер, Алекс Хюн, Райан Кинг, Эвертон Лоуренс, Джефф Мичам, Джессика Мераз, Сун Хи Ньюболд, Минди Робинсон, Алекс Сколари, Роберт Тарпиниан, Кэлвин Теннер, Мелвин Теннер, Мэттью Уиллиг

О фильме:
Спустя двадцать лет после начала Корпоративной Мировой войны, некогда цветущая и плодородная планета превратилась в выжженную пустыню, усеянную полуразрушенными останками людских поселений. Среди непрекращающейся тьмы и разрухи на свет появился Совет Девяти Роз, призванный уничтожить всё, что хоть отдалённо напоминает о корпорациях. Так началась эпоха наёмных убийц, охотящихся за «белыми воротничками».
Ограничение!!! Рейтинг R - Детям до 17 лет обязательно присутствие родителей
Рейтинг R получают фильмы, в содержании которых обязательно содержится материал, предназначенный только для взрослой аудитории. Родителям рекомендуется хорошо подумать, прежде чем посмотреть такой фильм вместе со своими детьми.

Фильм, получивший рейтинг R, скорее всего содержит сексуальные сцены, эпизоды с употреблением наркотиков, нецензурную брань, фрагменты с насилием и т.д.
Полное имя : G:Готово!!!Naemnuj.ubijtsa.2013.x264.BDRip.AVC-MediaClub.mkv
Формат : Matroska
Версия формата : Version 2
Размер файла : 1,94 Гбайт
Продолжительность : 1 ч. 32 м.
Общий поток : 2990 Кбит/сек
Название фильма : Naemnuj ubijtsa (2013) BDRip-AVC=MediaClub=-[Викс]-
Дата кодирования : UTC 2013-10-25 22:31:07
Программа кодирования : mkvmerge v5.8.0 ('No Sleep / Pillow') built on Sep 2 2012 15:37:04
Библиотека кодирования : libebml v1.2.3 + libmatroska v1.3.0

Видео
Идентификатор : 1
Формат : AVC
Формат/Информация : Advanced Video Codec
Профиль формата : High@L4.1
Параметр CABAC формата : Да
Параметр ReFrames формата : 8 кадров
Идентификатор кодека : V_MPEG4/ISO/AVC
Продолжительность : 1 ч. 32 м.
Битрейт : 2350 Кбит/сек
Ширина : 1024 пикселя
Высота : 426 пикселей
Соотношение сторон : 2,40:1
Режим частоты кадров : Постоянный
Частота кадров : 23,976 кадра/сек
Цветовое пространство : YUV
Субдискретизация насыщенности : 4:2:0
Битовая глубина : 8 бит
Тип развёртки : Прогрессивная
Бит/(Пиксели*Кадры) : 0.225
Размер потока : 1,48 Гбайт (77%)
Библиотека кодирования : x264 core 133 r2334 a3ac64b
Настройки программы : cabac=1 / ref=8 / deblock=1:-2:-2 / analyse=0x3:0x113 / me=umh / subme=11 / psy=1 / psy_rd=1.00:0.00 / mixed_ref=1 / me_range=48 / chroma_me=1 / trellis=2 / 8x8dct=1 / cqm=0 / deadzone=21,11 / fast_pskip=0 / chroma_qp_offset=-2 / threads=6 / lookahead_threads=1 / sliced_threads=0 / nr=0 / decimate=0 / interlaced=0 / bluray_compat=0 / constrained_intra=0 / bframes=8 / b_pyramid=2 / b_adapt=2 / b_bias=0 / direct=3 / weightb=1 / open_gop=0 / weightp=2 / keyint=240 / keyint_min=23 / scenecut=40 / intra_refresh=0 / rc_lookahead=40 / rc=2pass / mbtree=0 / bitrate=2350 / ratetol=1.0 / qcomp=0.60 / qpmin=0 / qpmax=69 / qpstep=4 / cplxblur=20.0 / qblur=0.5 / vbv_maxrate=50000 / vbv_bufsize=52500 / nal_hrd=none / ip_ratio=1.40 / pb_ratio=1.30 / aq=1:0.80
Язык : English
Default : Да
Forced : Нет

Аудио #1
Идентификатор : 2
Формат : AC-3
Формат/Информация : Audio Coding 3
Расширение режима : CM (complete main)
Параметр Endianness формата : Big
Идентификатор кодека : A_AC3
Продолжительность : 1 ч. 32 м.
Вид битрейта : Постоянный
Битрейт : 192 Кбит/сек
Каналы : 2 канала
Расположение каналов : Front: L R
Частота : 48,0 КГц
Битовая глубина : 16 бит
Метод сжатия : С потерями
Размер потока : 127 Мбайт (6%)
Язык : Russian
Default : Да
Forced : Нет

Аудио #2
Идентификатор : 3
Формат : AC-3
Формат/Информация : Audio Coding 3
Расширение режима : CM (complete main)
Параметр Endianness формата : Big
Идентификатор кодека : A_AC3
Продолжительность : 1 ч. 32 м.
Вид битрейта : Постоянный
Битрейт : 448 Кбит/сек
Каналы : 6 каналов
Расположение каналов : Front: L C R, Side: L R, LFE
Частота : 48,0 КГц
Битовая глубина : 16 бит
Метод сжатия : С потерями
Размер потока : 297 Мбайт (15%)
Язык : English
Default : Нет
Forced : Нет

Меню
00:00:00.000 : :Chapter 01
00:07:40.334 : :Chapter 02
00:16:59.935 : :Chapter 03
00:25:05.504 : :Chapter 04
00:32:23.942 : :Chapter 05
00:39:07.178 : :Chapter 06
00:49:42.729 : :Chapter 07
00:56:13.787 : :Chapter 08
01:03:16.125 : :Chapter 09
01:13:51.260 : :Chapter 10
01:20:00.921 : :Chapter 11
01:26:49.120 : :Chapter 12
01:32:40.012 : :Chapter 13
x264 [info]: frame I:1496 Avg QP:15.02 size: 63616
x264 [info]: frame P:37700 Avg QP:18.20 size: 21991
x264 [info]: frame B:94112 Avg QP:20.33 size: 7522


Страна: США
Студия: Just Chorizo Productions, Kickstart Productions
Продолжительность: 01:32:40
Перевод: Профессиональный многоголосый


Кодек: x264
Качество: BDRip (AVC)
Видео: MPEG-4 AVC, 2350 Кбит/с, 1024x426, 23.976 кадр/с
Звук:
Аудио #1: Русский (AC3, 2 ch, 192 Кбит/с) / Профессиональный многоголосый
Аудио #2: Английский (AC3, 6 ch, 448 Кбит/с)

Семпл



Релиз от: Рип, работа с аудио - Викс
загрузка...
Правила, инструкции, FAQ!!!
Торрент  Добавлен [26 окт 2013, 20:15] Скачать торрент
Скачать торрент
[ Размер 20.71 КБ / Просмотров 3 ]

Статус  
 
Размер  1.94 ГБ
Приватный: Нет (DHT включён)
.torrent скачан  0
Как залить торрент? | Как скачать Torrent? | Как смотреть и слушать онлайн?  


     Отправить личное сообщение
   
Страница 1 из 1
Показать сообщения за:  Поле сортировки  
Начать новую тему Ответить на тему

   Похожие торренты   Автор   Ответы   Просмотры   Последнее сообщение 
В этой теме нет новых непрочитанных сообщений. Скачать торрент Проверен Грин Грэм - Наёмный убийца [Джекил (ЛИ), 2011 г., 96, MP3]

в форуме Детектив и Боевики, Размер: 250.66 МБ, Здоровье: 0%

Anonymous

0
0|0

0
0

20 ноя 2016, 10:26

Anonymous Перейти к последнему сообщению

В этой теме нет новых непрочитанных сообщений. Скачать торрент Проверен King's Bounty: Темная Сторона / King's Bounty: Dark Side. Premium Edition (2014) PC | Steam-Rip от R.G. Игроманы

в форуме RPG, Размер: 3.9 ГБ, Здоровье: 100%

Anonymous

0
15|0

145
19

20 авг 2014, 11:46

Anonymous Перейти к последнему сообщению

В этой теме нет новых непрочитанных сообщений. Скачать торрент Проверен King's Bounty: Темная Сторона / King's Bounty: Dark Side (2014) PC | Лицензия

в форуме RPG, Размер: 7.02 ГБ, Здоровье: 100%

Anonymous

0
14|1

123
28

20 авг 2014, 11:41

Anonymous Перейти к последнему сообщению

В этой теме нет новых непрочитанных сообщений. Скачать торрент Проверен (Progressive) Bounty Hunter - Bounty Hunter [EP] - 2010, MP3, 320 kbps

в форуме Heavy, Power, Progressive (Metal), Размер: 48.13 МБ, Здоровье: 0%

Anonymous

0
0|0

4
0

08 окт 2016, 13:31

Anonymous Перейти к последнему сообщению

В этой теме нет новых непрочитанных сообщений. Скачать торрент Охотник за головами / The bounty hunter (Энди Теннант / Andy Tennant) [2010, США, комедия, BDRip] DUB

в форуме Комедии, Размер: 2.18 ГБ, Здоровье: 0%

Anonymous

0
0|0

125
0

19 апр 2014, 18:48

Anonymous Перейти к последнему сообщению



Сейчас этот форум просматривают: нет зарегистрированных пользователей и гости: 4


Вы не можете начинать темы
Вы не можете отвечать на сообщения
Вы не можете редактировать свои сообщения
Вы не можете удалять свои сообщения
Вы не можете добавлять вложения

Перейти:  

!ВНИМАНИЕ!
 Ресурс не предоставляет электронные версии произведений, а занимается лишь коллекционированием и каталогизацией ссылок, присылаемых и публикуемых на форуме нашими читателями. Если вы являетесь правообладателем какого-либо представленного материала и не желаете чтобы ссылка на него находилась в нашем каталоге, свяжитесь с нами и мы незамедлительно удалим её. Файлы для обмена на трекере предоставлены пользователями сайта, и администрация не несёт ответственности за их содержание. Просьба не заливать файлы, защищенные авторскими правами, а также файлы нелегального содержания!