На всех торрентах на трекере установлена скидка на скачивание в размере 100 процентов(а).
 Возможность скачивания торрента НЕ зависит от ограничений при низком ратио, низком аплоаде, требуемом ратио или требуемом аплоаде.


Начать новую тему Ответить на тему
Статистика раздачи
Размер: 4.36 ГБ | Добавлен: 24 окт 2013, 15:45 | Скачали: 0
Сидеров: 0  [0 байт/сек]    Личеров: 0  [0 байт/сек]
Пред. тема | След. тема 

Автор
Сообщение

СообщениеДобавлено: 24 окт 2013, 15:45 

Информация о фильме
    Русское название: Мне бы в небо
    Оригинальное название: Up in the Air
    Год выхода: 2009
    Жанр: Комедия, драма, мелодрама
    Режиссер: Джейсон Рейтман
    Выпущено: США
    Продолжительность: 01:49:20
    Перевод: Дублированный
    В ролях: Джордж Клуни, Вера Фармига, Анна Кендрик, Джейсон Бейтман, Эми Мортон, Мелани Лински, Дж.К. Симмонс, Сэм Эллиотт, Дэнни МакБрайд, Зак Галифианакис


Сюжет фильма
    Райан Бинэм — корпоративный юрист, всё время проводящий в командировках. Образцовый потребитель, он преуспел в корпоративных связях, чем не может похвалиться в личной жизни. Отношения на одну ночь для него просто часть длинного списка с бесчисленными люксами отелей, арендованными автомобилями, электронной почтой и сообщениями на автоответчике. Постоянные разъезды отдалили его от родной семьи, а свою он так и не создал…


Файл
    Качество: BDRip 720p (исходник Blu-ray Remux)
    Видео: 1280x694, 4635 Кбит/сек, 23,976 кадр/сек, AVC, x264, High@L4.1, 1.85:1, 0.218 Бит/[Пиксели*Кадры], 2pass
    Аудио 1: AC-3, 448 Кбит/сек, 6 канала(ов), 48,0 КГц - Дублированный / Русский
    Аудио 2: AC-3, 640 Кбит/сек, 6 канала(ов), 48,0 КГц - Оригинал / Английский
    Субтитры: Русские | Полные, Английские | Полные
    Чаптеры: Есть



Автор Рипа: Сообщество:



Format : Matroska
Format version : Version 2
File size : 4.36 GiB
Duration : 1h 49mn
Overall bit rate : 5 713 Kbps
Movie name : Мне бы в небо.(2009).BDRip.720p.[envy]
Encoded date : UTC 2013-10-24 07:36:53
Writing application : mkvmerge v5.8.0 ('No Sleep / Pillow') built on Sep 2 2012 15:37:04
Writing library : libebml v1.2.3 + libmatroska v1.3.0

Video
ID : 1
Format : AVC
Format/Info : Advanced Video Codec
Format profile : High@L4.1
Format settings, CABAC : Yes
Format settings, ReFrames : 9 frames
Codec ID : V_MPEG4/ISO/AVC
Duration : 1h 49mn
Bit rate : 4 635 Kbps
Width : 1 280 pixels
Height : 694 pixels
Display aspect ratio : 1.85:1
Frame rate mode : Constant
Frame rate : 23.976 fps
Color space : YUV
Chroma subsampling : 4:2:0
Bit depth : 8 bits
Scan type : Progressive
Bits/(Pixel*Frame) : 0.218
Stream size : 3.45 GiB (79%)
Title : Мне бы в небо.(2009).BDRip.720p.[envy]
Writing library : x264 core 138 r2358 9e941d1
Encoding settings : cabac=1 / ref=9 / deblock=1:-3:-3 / analyse=0x3:0x133 / me=umh / subme=11 / psy=1 / psy_rd=1.00:0.00 / mixed_ref=1 / me_range=32 / chroma_me=1 / trellis=2 / 8x8dct=1 / cqm=0 / deadzone=21,11 / fast_pskip=0 / chroma_qp_offset=-2 / threads=12 / lookahead_threads=2 / sliced_threads=0 / nr=0 / decimate=1 / interlaced=0 / bluray_compat=0 / constrained_intra=0 / bframes=7 / b_pyramid=2 / b_adapt=2 / b_bias=0 / direct=3 / weightb=1 / open_gop=0 / weightp=2 / keyint=240 / keyint_min=23 / scenecut=40 / intra_refresh=0 / rc=2pass / mbtree=0 / bitrate=4635 / ratetol=2.0 / qcomp=0.60 / qpmin=0 / qpmax=69 / qpstep=4 / cplxblur=20.0 / qblur=0.5 / ip_ratio=1.40 / pb_ratio=1.30 / aq=1:0.70
Language : English
Default : Yes
Forced : No

Audio #1
ID : 2
Format : AC-3
Format/Info : Audio Coding 3
Mode extension : CM (complete main)
Format settings, Endianness : Big
Codec ID : A_AC3
Duration : 1h 49mn
Bit rate mode : Constant
Bit rate : 448 Kbps
Channel count : 6 channels
Channel positions : Front: L C R, Side: L R, LFE
Sampling rate : 48.0 KHz
Bit depth : 16 bits
Compression mode : Lossy
Stream size : 350 MiB (8%)
Title : Дубляж
Language : Russian
Default : Yes
Forced : No

Audio #2
ID : 3
Format : AC-3
Format/Info : Audio Coding 3
Mode extension : CM (complete main)
Format settings, Endianness : Big
Codec ID : A_AC3
Duration : 1h 49mn
Bit rate mode : Constant
Bit rate : 640 Kbps
Channel count : 6 channels
Channel positions : Front: L C R, Side: L R, LFE
Sampling rate : 48.0 KHz
Bit depth : 16 bits
Compression mode : Lossy
Stream size : 501 MiB (11%)
Title : Оригинал
Language : English
Default : No
Forced : No

Text #1
ID : 4
Format : UTF-8
Codec ID : S_TEXT/UTF8
Codec ID/Info : UTF-8 Plain Text
Title : Полные
Language : Russian
Default : No
Forced : No

Text #2
ID : 5
Format : UTF-8
Codec ID : S_TEXT/UTF8
Codec ID/Info : UTF-8 Plain Text
Title : Full
Language : English
Default : No
Forced : No

Menu
00:00:00.000 : :Chapter 01
00:07:41.294 : :Chapter 02
00:11:07.000 : :Chapter 03
00:18:17.513 : :Chapter 04
00:25:44.042 : :Chapter 05
00:31:02.235 : :Chapter 06
00:36:05.163 : :Chapter 07
00:43:00.953 : :Chapter 08
00:49:15.953 : :Chapter 09
00:53:20.030 : :Chapter 10
01:00:00.430 : :Chapter 11
01:07:38.763 : :Chapter 12
01:17:39.572 : :Chapter 13
01:24:48.125 : :Chapter 14
01:28:41.399 : :Chapter 15
01:33:25.683 : :Chapter 16
01:40:34.695 : :Chapter 17
01:44:08.242 : :Chapter 18
загрузка...
Правила, инструкции, FAQ!!!
Торрент  Добавлен [24 окт 2013, 15:45] Скачать торрент
Скачать торрент
[ Размер 22.25 КБ / Просмотров 8 ]

Статус  
 
Размер  4.36 ГБ
Приватный: Нет (DHT включён)
.torrent скачан  0
Как залить торрент? | Как скачать Torrent? | Как смотреть и слушать онлайн?  


     Отправить личное сообщение
   
Страница 1 из 1
Показать сообщения за:  Поле сортировки  
Начать новую тему Ответить на тему

   Похожие торренты   Автор   Ответы   Просмотры   Последнее сообщение 
В этой теме нет новых непрочитанных сообщений. Скачать торрент Проверен [iPad] Мне бы в небо / Up in the Air (Джейсон Рейтман / Jason Reitman) [2009 г., мелодрама, драма, BDRip, 720p]

в форуме Фильмы для iPod, iPhone, iPad, Размер: 2.25 ГБ, Здоровье: 100%

Anonymous

0
20|6

104
2

18 май 2015, 10:56

Anonymous Перейти к последнему сообщению

В этой теме нет новых непрочитанных сообщений. Скачать торрент Мне бы в небо / Up in the Air (2009) BDRip-AVC

в форуме 720p | 1080p, Размер: 2.18 ГБ, Здоровье: 0%

Anonymous

0
0|0

36
0

09 янв 2014, 00:35

Anonymous Перейти к последнему сообщению

В этой теме нет новых непрочитанных сообщений. Скачать торрент Мне бы в небо / Up in the Air (2009) BDRip 1080p

в форуме 720p | 1080p, Размер: 7.75 ГБ, Здоровье: 100%

Anonymous

0
11|0

43
162

26 мар 2014, 16:05

Anonymous Перейти к последнему сообщению

В этой теме нет новых непрочитанных сообщений. Скачать торрент Проверен Табор уходит в небо (1976) HDTVRip 720p

в форуме 720p | 1080p, Размер: 3.29 ГБ, Здоровье: 100%

Anonymous

0
11|0

21
266

12 июл 2014, 12:34

Anonymous Перейти к последнему сообщению

В этой теме нет новых непрочитанных сообщений. Скачать торрент Красное небо / Red Sky (2014) BDRip [1080p]

в форуме 720p | 1080p, Размер: 7.37 ГБ, Здоровье: 0%

Anonymous

0
0|0

23
0

17 апр 2014, 00:34

Anonymous Перейти к последнему сообщению



Сейчас этот форум просматривают: нет зарегистрированных пользователей и гости: 2


Вы не можете начинать темы
Вы не можете отвечать на сообщения
Вы не можете редактировать свои сообщения
Вы не можете удалять свои сообщения
Вы не можете добавлять вложения

Перейти:  

!ВНИМАНИЕ!
 Ресурс не предоставляет электронные версии произведений, а занимается лишь коллекционированием и каталогизацией ссылок, присылаемых и публикуемых на форуме нашими читателями. Если вы являетесь правообладателем какого-либо представленного материала и не желаете чтобы ссылка на него находилась в нашем каталоге, свяжитесь с нами и мы незамедлительно удалим её. Файлы для обмена на трекере предоставлены пользователями сайта, и администрация не несёт ответственности за их содержание. Просьба не заливать файлы, защищенные авторскими правами, а также файлы нелегального содержания!