На всех торрентах на трекере установлена скидка на скачивание в размере 100 процентов(а).
 Возможность скачивания торрента НЕ зависит от ограничений при низком ратио, низком аплоаде, требуемом ратио или требуемом аплоаде.


Начать новую тему Ответить на тему
Статистика раздачи
Размер: 1.85 ГБ | Добавлен: 23 окт 2013, 21:11 | Скачали: 10
Сидеров: 4  [0 байт/сек]    Личеров: 0  [0 байт/сек]
Пред. тема | След. тема 

Автор
Сообщение

СообщениеДобавлено: 23 окт 2013, 21:11 

Название: Проводник (Первопроходец)
Оригинальное название: Ofelas (Pathfinder)
Год выхода: 1987
Жанр: Боевик, драма, приключения
Режиссер: Нильс Гауп

В ролях: Миккель Гауп, Нильс Утси, Нильс-Аслак Валькеапяя, Хельги Скуласон, Свейн Шарфенберг, Кнут Ваил, Джон Сигурд Кристенсен, Сара Марит Гауп, Анне-Мария Блинд Ингвальд Гутторм, Ингер Утси

О фильме:
Экранизация древней лапландской легенды. XI век. Лапландия. Север Скандинавского полуострова. Жестокие воины из племени чудь убили на глазах юноши-лапландца Айгина его родителей и маленькую сестру. Парню удалось бежать и предупредить об опасности своих сородичей - охотников и оленеводов. Миролюбивое племя хочет обратиться в бегство, чтобы спастись от захватчиков. Айгин же намерен отомстить за смерть близких, вступив в неравный бой с воинами чуди...



Страна: Норвегия
Студия: Filmkameratene A/S, Mayco, Norsk Film A/S, Norway Film Development
Продолжительность: 01:26:28
Перевод: Профессиональный многоголосый


Кодек: MPEG-4 AVC
Качество: BDRip (AVC)
Видео: 2062 Кбит/с, 1024х432
Звук: Русский, английский (AC3, 2 ch, 192 Кбит/с), норвежский (AC3, 2 ch, 224 Кбит/с), сами (AC3, 6 ch, 384 Кбит/с)
Субтитры: Русские, английские, норвежские

Рип от StarbirS

Перевод: Профессиональный многоголосый (Рен-ТВ)

Аудио: Russian: AC3, 2 ch, 102 kbps, 48 kHz | [многоголосый]
Аудио: English: AC3, 2 ch, 192 kbps, 48 kHz | [Дублированный (Английский)]
Аудио: Norwegian: AC3, 2 ch, 224 kbps, 48 kHz | [Оригинал]
Аудио: Sami: AC3, 6 ch, 384 kbps, 48 kHz | [Прочие переводы]

Субтитры распознаны и конвертированы в *.srt для совместимости с бытовыми плеерами

Исходный диск от Volshebnik

x264 [info]: frame I:1425 Avg QP:20.27 size: 55703
x264 [info]: frame P:67213 Avg QP:23.18 size: 15651
x264 [info]: frame B:55887 Avg QP:25.21 size: 3667
x264 [info]: consecutive B-frames: 22.4% 50.7% 12.8% 7.4% 4.4% 0.8% 0.6% 0.1% 0.7%

Формат : Matroska
Версия формата : Version 4 / Version 2
Размер файла : 1,85 Гбайт
Продолжительность : 1 ч. 26 м.
Общий поток : 3055 Кбит/сек
Название фильма : Pathfinder.1987.BDRip.(AVC)
Дата кодирования : UTC 2013-10-23 06:19:58
Программа кодирования : mkvmerge v6.3.0 ('You can't stop me!') built on Jun 28 2013 20:09:41
Библиотека кодирования : libebml v1.3.0 + libmatroska v1.4.0

Видео
Идентификатор : 1
Формат : AVC
Формат/Информация : Advanced Video Codec
Профиль формата : High@L4.1
Параметр CABAC формата : Да
Параметр ReFrames формата : 10 кадров
Идентификатор кодека : V_MPEG4/ISO/AVC
Продолжительность : 1 ч. 26 м.
Битрейт : 2062 Кбит/сек
Ширина : 1024 пикселя
Высота : 432 пикселя
Соотношение сторон : 2,40:1
Режим частоты кадров : Постоянный
Частота кадров : 24,000 кадра/сек
Цветовое пространство : YUV
Субдискретизация насыщенности : 4:2:0
Битовая глубина : 8 бит
Тип развёртки : Прогрессивная
Бит/(Пиксели*Кадры) : 0.194
Размер потока : 1,21 Гбайт (66%)
Заголовок : Pathfinder.1987.BDRip.(AVC)
Библиотека кодирования : x264 core 130 r2273 b3065e6
Настройки программы : cabac=1 / ref=10 / deblock=1:-3:-3 / analyse=0x3:0x133 / me=umh / subme=10 / psy=1 / psy_rd=1.00:0.15 / mixed_ref=1 / me_range=32 / chroma_me=1 / trellis=2 / 8x8dct=1 / cqm=0 / deadzone=21,11 / fast_pskip=0 / chroma_qp_offset=-3 / threads=6 / lookahead_threads=1 / sliced_threads=0 / nr=0 / decimate=1 / interlaced=0 / bluray_compat=0 / constrained_intra=0 / bframes=8 / b_pyramid=2 / b_adapt=1 / b_bias=0 / direct=3 / weightb=1 / open_gop=1 / weightp=2 / keyint=240 / keyint_min=23 / scenecut=40 / intra_refresh=0 / rc_lookahead=50 / rc=2pass / mbtree=1 / bitrate=2062 / ratetol=1.0 / qcomp=0.60 / qpmin=0 / qpmax=69 / qpstep=4 / cplxblur=20.0 / qblur=0.5 / ip_ratio=1.40 / aq=1:1.00
Язык : English
Default : Да
Forced : Нет

Аудио #1
Идентификатор : 2
Формат : AC-3
Формат/Информация : Audio Coding 3
Расширение режима : CM (complete main)
Параметр Endianness формата : Big
Идентификатор кодека : A_AC3
Продолжительность : 1 ч. 26 м.
Вид битрейта : Постоянный
Битрейт : 192 Кбит/сек
Каналы : 2 канала
Расположение каналов : Front: L R
Частота : 48,0 КГц
Битовая глубина : 16 бит
Метод сжатия : С потерями
Размер потока : 119 Мбайт (6%)
Заголовок : Профессиональный многоголосый (Рен-ТВ)
Язык : Russian
Default : Да
Forced : Нет

Аудио #2
Идентификатор : 3
Формат : AC-3
Формат/Информация : Audio Coding 3
Расширение режима : CM (complete main)
Параметр Endianness формата : Big
Идентификатор кодека : A_AC3
Продолжительность : 1 ч. 26 м.
Вид битрейта : Постоянный
Битрейт : 192 Кбит/сек
Каналы : 2 канала
Расположение каналов : Front: L R
Частота : 48,0 КГц
Битовая глубина : 16 бит
Метод сжатия : С потерями
Размер потока : 119 Мбайт (6%)
Заголовок : Дублированный (Англиский)
Язык : English
Default : Нет
Forced : Нет

Аудио #3
Идентификатор : 4
Формат : AC-3
Формат/Информация : Audio Coding 3
Расширение режима : CM (complete main)
Параметр Endianness формата : Big
Идентификатор кодека : A_AC3
Продолжительность : 1 ч. 26 м.
Вид битрейта : Постоянный
Битрейт : 224 Кбит/сек
Каналы : 2 канала
Расположение каналов : Front: L R
Частота : 48,0 КГц
Битовая глубина : 16 бит
Метод сжатия : С потерями
Размер потока : 139 Мбайт (7%)
Заголовок : Оригинал
Язык : Norwegian
Default : Нет
Forced : Нет

Аудио #4
Идентификатор : 5
Формат : AC-3
Формат/Информация : Audio Coding 3
Расширение режима : CM (complete main)
Параметр Endianness формата : Big
Идентификатор кодека : A_AC3
Продолжительность : 1 ч. 26 м.
Вид битрейта : Постоянный
Битрейт : 384 Кбит/сек
Каналы : 6 каналов
Расположение каналов : Front: L C R, Side: L R, LFE
Частота : 48,0 КГц
Битовая глубина : 16 бит
Метод сжатия : С потерями
Размер потока : 238 Мбайт (13%)
Язык : sai
Default : Нет
Forced : Нет

Текст #1
Идентификатор : 6
Формат : UTF-8
Идентификатор кодека : S_TEXT/UTF8
Идентификатор кодека/Информация : UTF-8 Plain Text
Заголовок : Русские
Язык : Russian
Default : Да
Forced : Нет

Текст #2
Идентификатор : 7
Формат : UTF-8
Идентификатор кодека : S_TEXT/UTF8
Идентификатор кодека/Информация : UTF-8 Plain Text
Заголовок : Английские
Язык : English
Default : Нет
Forced : Нет

Текст #3
Идентификатор : 8
Формат : UTF-8
Идентификатор кодека : S_TEXT/UTF8
Идентификатор кодека/Информация : UTF-8 Plain Text
Заголовок : Оригинал
Язык : Norwegian
Default : Нет
Forced : Нет



загрузка...
Правила, инструкции, FAQ!!!
Торрент  Добавлен [23 окт 2013, 21:11] Скачать торрент
Скачать торрент
[ Размер 9.64 КБ / Просмотров 9 ]

Статус  
 
Размер  1.85 ГБ
Приватный: Нет (DHT включён)
.torrent скачан  10
Как залить торрент? | Как скачать Torrent? | Как смотреть и слушать онлайн?  


     Отправить личное сообщение
   
Страница 1 из 1
Показать сообщения за:  Поле сортировки  
Начать новую тему Ответить на тему

   Похожие торренты   Автор   Ответы   Просмотры   Последнее сообщение 
В этой теме нет новых непрочитанных сообщений. Скачать торрент Проверен (Symphonic Power Metal) Pathfinder - Pathfinder (Demo) - 2007, MP3 (tracks), 128 kbps

в форуме Heavy, Power, Progressive (Metal), Размер: 17.93 МБ, Здоровье: 0%

Anonymous

0
0|0

3
0

08 окт 2016, 17:55

Anonymous Перейти к последнему сообщению

В этой теме нет новых непрочитанных сообщений. Скачать торрент Первопроходец / Pioneer (2013) BDRip-AVC | L1

в форуме 720p | 1080p, Размер: 2.83 ГБ, Здоровье: 100%

Anonymous

0
29|14

16
60

24 фев 2014, 15:19

Anonymous Перейти к последнему сообщению

В этой теме нет новых непрочитанных сообщений. Скачать торрент Первопроходец / Pioneer (2013) BDRip 720p | L1

в форуме 720p | 1080p, Размер: 5.15 ГБ, Здоровье: 100%

Anonymous

0
56|40

13
108

20 фев 2014, 23:16

Anonymous Перейти к последнему сообщению

В этой теме нет новых непрочитанных сообщений. Скачать торрент Проверен Конторович Александр - (Цикл "Черные бушлаты") - Проводник (Черный проводник). Книга 6 - (Версия СИ) [Ларионов Сергей (babay7) (ЛИ), 2012 г., 128 kbps, MP3]

в форуме Российская фантастика, фэнтези, мистика, ужасы, фанфики, Размер: 596.56 МБ, Здоровье: 0%

Anonymous

0
0|0

2
0

10 сен 2016, 20:35

Anonymous Перейти к последнему сообщению

В этой теме нет новых непрочитанных сообщений. Скачать торрент Проверен Следопыт / Pathfinder (2007) BDRip 720p

в форуме 720p | 1080p, Размер: 4.39 ГБ, Здоровье: 100%

Anonymous

0
19|2

28
1327

15 авг 2014, 09:57

Anonymous Перейти к последнему сообщению



Сейчас этот форум просматривают: нет зарегистрированных пользователей и гости: 1


Вы не можете начинать темы
Вы не можете отвечать на сообщения
Вы не можете редактировать свои сообщения
Вы не можете удалять свои сообщения
Вы не можете добавлять вложения

Перейти:  

!ВНИМАНИЕ!
 Ресурс не предоставляет электронные версии произведений, а занимается лишь коллекционированием и каталогизацией ссылок, присылаемых и публикуемых на форуме нашими читателями. Если вы являетесь правообладателем какого-либо представленного материала и не желаете чтобы ссылка на него находилась в нашем каталоге, свяжитесь с нами и мы незамедлительно удалим её. Файлы для обмена на трекере предоставлены пользователями сайта, и администрация не несёт ответственности за их содержание. Просьба не заливать файлы, защищенные авторскими правами, а также файлы нелегального содержания!