На всех торрентах на трекере установлена скидка на скачивание в размере 100 процентов(а).
 Возможность скачивания торрента НЕ зависит от ограничений при низком ратио, низком аплоаде, требуемом ратио или требуемом аплоаде.


Начать новую тему Ответить на тему
Статистика раздачи
Размер: 6.7 ГБ | Добавлен: 23 окт 2013, 21:04 | Скачали: 4
Сидеров: 1  [0 байт/сек]    Личеров: 0  [0 байт/сек]
Пред. тема | След. тема 

Автор
Сообщение

СообщениеДобавлено: 23 окт 2013, 21:04 

Название: Проводник (Первопроходец)
Оригинальное название: Ofelas (Pathfinder)
Год выхода: 1987
Жанр: Боевик, драма, приключения
Режиссер: Нильс Гауп

В ролях: Миккель Гауп, Нильс Утси, Нильс-Аслак Валькеапяя, Хельги Скуласон, Свейн Шарфенберг, Кнут Ваил, Джон Сигурд Кристенсен, Сара Марит Гауп, Анне-Мария Блинд Ингвальд Гутторм, Ингер Утси

О фильме:
Экранизация древней лапландской легенды. XI век. Лапландия. Север Скандинавского полуострова. Жестокие воины из племени чудь убили на глазах юноши-лапландца Айгина его родителей и маленькую сестру. Парню удалось бежать и предупредить об опасности своих сородичей - охотников и оленеводов. Миролюбивое племя хочет обратиться в бегство, чтобы спастись от захватчиков. Айгин же намерен отомстить за смерть близких, вступив в неравный бой с воинами чуди...



Страна: Норвегия
Студия: Filmkameratene A/S, Mayco, Norsk Film A/S, Norway Film Development
Продолжительность: 01:26:28
Перевод: Профессиональный многоголосый


Кодек: MPEG-4 AVC
Качество: BDRip (AVC)
Видео: 2062 Кбит/с, 1024х432
Звук: Русский, английский (AC3, 2 ch, 192 Кбит/с), норвежский (AC3, 2 ch, 224 Кбит/с), сами (AC3, 6 ch, 384 Кбит/с)
Субтитры: Русские, английские, норвежские

Рип от SbR

Перевод: Профессиональный многоголосый (Рен-ТВ)

Аудио: Russian: AC3, 2 ch, 102 kbps, 48 kHz | [многоголосый]
Аудио: English: AC3, 2 ch, 192 kbps, 48 kHz | [Дублированный (Английский)]
Аудио: Norwegian: AC3, 2 ch, 224 kbps, 48 kHz | [Оригинал]
Аудио: Sami: AC3, 6 ch, 384 kbps, 48 kHz | [Прочие переводы]

Субтитры распознаны и конвертированы в *.srt для совместимости с бытовыми плеерами

Исходный диск от Volshebnik
сборка: StarbirS

Формат : Matroska
Версия формата : Version 4 / Version 2
Размер файла : 6,70 Гбайт
Продолжительность : 1 ч. 26 м.
Общий поток : 11,1 Мбит/сек
Название фильма : Pathfinder.1987.BDRip.(720p)-SbR
Дата кодирования : UTC 2013-10-23 16:20:31
Программа кодирования : mkvmerge v6.3.0 ('You can't stop me!') built on Jun 28 2013 20:09:41
Библиотека кодирования : libebml v1.3.0 + libmatroska v1.4.0

Видео
Идентификатор : 1
Формат : AVC
Формат/Информация : Advanced Video Codec
Профиль формата : High@L4.1
Параметр CABAC формата : Да
Параметр ReFrames формата : 9 кадров
Идентификатор кодека : V_MPEG4/ISO/AVC
Продолжительность : 1 ч. 26 м.
Битрейт : 9850 Кбит/сек
Ширина : 1280 пикселей
Высота : 546 пикселей
Соотношение сторон : 2,35:1
Режим частоты кадров : Постоянный
Частота кадров : 24,000 кадра/сек
Цветовое пространство : YUV
Субдискретизация насыщенности : 4:2:0
Битовая глубина : 8 бит
Тип развёртки : Прогрессивная
Бит/(Пиксели*Кадры) : 0.587
Размер потока : 5,82 Гбайт (87%)
Заголовок : Pathfinder.1987.BDRip.(720p)-SbR
Библиотека кодирования : x264 core 138 r2358kMod 9e941d1
Настройки программы : cabac=1 / ref=9 / deblock=1:-3:-3 / analyse=0x3:0x113 / me=esa / subme=11 / psy=1 / fade_compensate=0.00 / psy_rd=1.00:0.05 / mixed_ref=1 / me_range=32 / chroma_me=1 / trellis=2 / 8x8dct=1 / cqm=0 / deadzone=21,11 / fast_pskip=0 / chroma_qp_offset=-3 / threads=6 / lookahead_threads=1 / sliced_threads=0 / nr=0 / decimate=1 / interlaced=0 / bluray_compat=0 / constrained_intra=0 / bframes=12 / b_pyramid=2 / b_adapt=2 / b_bias=0 / direct=3 / weightb=1 / open_gop=0 / weightp=2 / keyint=250 / keyint_min=24 / scenecut=40 / intra_refresh=0 / rc_lookahead=40 / rc=2pass / mbtree=0 / bitrate=9850 / ratetol=1.0 / qcomp=0.75 / qpmin=0 / qpmax=69 / qpstep=4 / cplxblur=20.0 / qblur=0.5 / vbv_maxrate=50000 / vbv_bufsize=62500 / nal_hrd=none / ip_ratio=1.40 / pb_ratio=1.30 / aq=1:0.80 / zones=629,968,b=1.5/22236,24348,b=1.5/34372,41387,b=1.5/56214,62627,b=1.5/74568,74601,b=1.5/75590,76903,b=1.5/88858,89896,b=1.3/95674,96140,b=1.5/97461,98701,b=1.5/99133,99431,b=1.5/103874,105602,b=1.5/106743,108315,b=1.5/115627,120315,b=1.5
Язык : English
Default : Да
Forced : Нет
Коэффициенты матрицы : BT.709

Аудио #1
Идентификатор : 2
Формат : AC-3
Формат/Информация : Audio Coding 3
Расширение режима : CM (complete main)
Параметр Endianness формата : Big
Идентификатор кодека : A_AC3
Продолжительность : 1 ч. 26 м.
Вид битрейта : Постоянный
Битрейт : 192 Кбит/сек
Каналы : 2 канала
Расположение каналов : Front: L R
Частота : 48,0 КГц
Битовая глубина : 16 бит
Метод сжатия : С потерями
Размер потока : 119 Мбайт (2%)
Заголовок : Профессиональный многоголосый (Рен-ТВ)
Язык : Russian
Default : Да
Forced : Нет

Аудио #2
Идентификатор : 3
Формат : AC-3
Формат/Информация : Audio Coding 3
Расширение режима : CM (complete main)
Параметр Endianness формата : Big
Идентификатор кодека : A_AC3
Продолжительность : 1 ч. 26 м.
Вид битрейта : Постоянный
Битрейт : 192 Кбит/сек
Каналы : 2 канала
Расположение каналов : Front: L R
Частота : 48,0 КГц
Битовая глубина : 16 бит
Метод сжатия : С потерями
Размер потока : 119 Мбайт (2%)
Заголовок : Дублированный (Англиский)
Язык : English
Default : Нет
Forced : Нет

Аудио #3
Идентификатор : 4
Формат : AC-3
Формат/Информация : Audio Coding 3
Расширение режима : CM (complete main)
Параметр Endianness формата : Big
Идентификатор кодека : A_AC3
Продолжительность : 1 ч. 26 м.
Вид битрейта : Постоянный
Битрейт : 224 Кбит/сек
Каналы : 2 канала
Расположение каналов : Front: L R
Частота : 48,0 КГц
Битовая глубина : 16 бит
Метод сжатия : С потерями
Размер потока : 139 Мбайт (2%)
Заголовок : Оригинал
Язык : Norwegian
Default : Нет
Forced : Нет

Аудио #4
Идентификатор : 5
Формат : AC-3
Формат/Информация : Audio Coding 3
Расширение режима : CM (complete main)
Параметр Endianness формата : Big
Идентификатор кодека : A_AC3
Продолжительность : 1 ч. 26 м.
Вид битрейта : Постоянный
Битрейт : 640 Кбит/сек
Каналы : 6 каналов
Расположение каналов : Front: L C R, Side: L R, LFE
Частота : 48,0 КГц
Битовая глубина : 16 бит
Метод сжатия : С потерями
Размер потока : 396 Мбайт (6%)
Заголовок : Sami languages
Язык : smi
Default : Нет
Forced : Нет

Текст #1
Идентификатор : 6
Формат : UTF-8
Идентификатор кодека : S_TEXT/UTF8
Идентификатор кодека/Информация : UTF-8 Plain Text
Заголовок : Русские
Язык : Russian
Default : Да
Forced : Нет

Текст #2
Идентификатор : 7
Формат : UTF-8
Идентификатор кодека : S_TEXT/UTF8
Идентификатор кодека/Информация : UTF-8 Plain Text
Заголовок : Английские
Язык : English
Default : Нет
Forced : Нет

Текст #3
Идентификатор : 8
Формат : UTF-8
Идентификатор кодека : S_TEXT/UTF8
Идентификатор кодека/Информация : UTF-8 Plain Text
Заголовок : Оригинал
Язык : Norwegian
Default : Нет
Forced : Нет

Меню
00:00:00.000 : en:00:00:00.000
00:12:10.916 : en:00:12:10.916
00:23:52.166 : en:00:23:52.166
00:35:59.791 : en:00:35:59.791
00:45:50.791 : en:00:45:50.791
00:59:54.208 : en:00:59:54.208
01:12:08.500 : en:01:12:08.500
01:24:05.375 : en:01:24:05.375



загрузка...
Правила, инструкции, FAQ!!!
Торрент  Добавлен [23 окт 2013, 21:04] Скачать торрент
Скачать торрент
[ Размер 17.17 КБ / Просмотров 7 ]

Статус  
 
Размер  6.7 ГБ
Приватный: Нет (DHT включён)
.torrent скачан  4
Как залить торрент? | Как скачать Torrent? | Как смотреть и слушать онлайн?  


     Отправить личное сообщение
   
Страница 1 из 1
Показать сообщения за:  Поле сортировки  
Начать новую тему Ответить на тему

   Похожие торренты   Автор   Ответы   Просмотры   Последнее сообщение 
В этой теме нет новых непрочитанных сообщений. Скачать торрент Первопроходец / Pioneer (2013) BDRip 720p | L1

в форуме 720p | 1080p, Размер: 5.15 ГБ, Здоровье: 100%

Anonymous

0
56|40

13
108

20 фев 2014, 23:16

Anonymous Перейти к последнему сообщению

В этой теме нет новых непрочитанных сообщений. Скачать торрент Проверен Следопыт / Pathfinder (2007) BDRip 720p

в форуме 720p | 1080p, Размер: 4.39 ГБ, Здоровье: 100%

Anonymous

0
19|2

28
1327

15 авг 2014, 09:57

Anonymous Перейти к последнему сообщению

В этой теме нет новых непрочитанных сообщений. Скачать торрент Проверен (Symphonic Power Metal) Pathfinder - Pathfinder (Demo) - 2007, MP3 (tracks), 128 kbps

в форуме Heavy, Power, Progressive (Metal), Размер: 17.93 МБ, Здоровье: 0%

Anonymous

0
0|0

3
0

08 окт 2016, 17:55

Anonymous Перейти к последнему сообщению

В этой теме нет новых непрочитанных сообщений. Скачать торрент Первопроходец / Pioneer (2013) BDRip-AVC | L1

в форуме 720p | 1080p, Размер: 2.83 ГБ, Здоровье: 100%

Anonymous

0
29|14

16
60

24 фев 2014, 15:19

Anonymous Перейти к последнему сообщению

В этой теме нет новых непрочитанных сообщений. Скачать торрент Проверен Конторович Александр - (Цикл "Черные бушлаты") - Проводник (Черный проводник). Книга 6 - (Версия СИ) [Ларионов Сергей (babay7) (ЛИ), 2012 г., 128 kbps, MP3]

в форуме Российская фантастика, фэнтези, мистика, ужасы, фанфики, Размер: 596.56 МБ, Здоровье: 0%

Anonymous

0
0|0

2
0

10 сен 2016, 20:35

Anonymous Перейти к последнему сообщению



Сейчас этот форум просматривают: нет зарегистрированных пользователей и гости: 1


Вы не можете начинать темы
Вы не можете отвечать на сообщения
Вы не можете редактировать свои сообщения
Вы не можете удалять свои сообщения
Вы не можете добавлять вложения

Перейти:  

!ВНИМАНИЕ!
 Ресурс не предоставляет электронные версии произведений, а занимается лишь коллекционированием и каталогизацией ссылок, присылаемых и публикуемых на форуме нашими читателями. Если вы являетесь правообладателем какого-либо представленного материала и не желаете чтобы ссылка на него находилась в нашем каталоге, свяжитесь с нами и мы незамедлительно удалим её. Файлы для обмена на трекере предоставлены пользователями сайта, и администрация не несёт ответственности за их содержание. Просьба не заливать файлы, защищенные авторскими правами, а также файлы нелегального содержания!