На всех торрентах на трекере установлена скидка на скачивание в размере 100 процентов(а).
 Возможность скачивания торрента НЕ зависит от ограничений при низком ратио, низком аплоаде, требуемом ратио или требуемом аплоаде.


Начать новую тему Ответить на тему
Статистика раздачи
Размер: 4.88 ГБ | Добавлен: 23 окт 2013, 20:26 | Скачали: 0
Сидеров: 0  [0 байт/сек]    Личеров: 0  [0 байт/сек]
Пред. тема | След. тема 

Автор
Сообщение

СообщениеДобавлено: 23 окт 2013, 20:26 

Название: Большое дело
Оригинальное название: The Big Hit
Год выхода: 1998
Жанр: Боевик, комедия
Режиссер: Керк Вонг

В ролях: Марк Уолберг, Лу Даймонд Филлипс, Кристина Эпплгейт, Боким Вудбайн, Антонио Сабато мл., Чайна Чоу, Дэнни Смит

О фильме:
Оригинальный комедийный боевик. Герои фильма, молодые и симпатичные наемные убийцы, относятся к своей профессии как к обычной работе. Без пафоса и без угрызений совести, легко и весело, задания выполняют лихо и артистично. Но им вечно не хватает денег, хотя оплачиваются заказы достаточно хорошо. Решив провернуть одно дельце, не ставя в известность своего босса, они похищают дочь японского миллионера, требуя выкуп в миллион долларов. Но дочь оказывается крестницей их босса. Один из ребят, Мелвин Смайли, влюбляется в похищенную, а она влюбляется в него. За ними устремляется вся армия преступного босса. Боевик превращается по сути в историю любви, оставаясь в то же самое время динамичным, насыщенным престрелками, драками, погонями и взрывами зрелищем.



Страна: США
Студия: TriStar Pictures, Lion Rock Productions, Amen Ra Films, Zide-Perry Productions
Продолжительность: 01:31:23
Перевод: Дублированный, профессиональный (многоголосый закадровый), авторский (одноголосый закадровый)


Кодек: h264
Качество: BDRip 720p
Видео: MPEG-4 AVC, 5277 Кбит/с, 1280x694, 23.976 кадр/с

Звук:
• №1: Русский (АС3, 6 ch, 640 Кбит/с) Дублированный
• №2: Русский (АС3, 2 ch, 192 Кбит/с) Профессиональный многоголосый [R5]
• №3: Русский (АС3, 6 ch, 448 Кбит/с) Авторский одноголосый [Леонид Володарский]
• №4: Русский (АС3, 6 ch, 448 Кбит/с) Авторский одноголосый [Юрий Живов]
• №5: Русский (АС3, 2 ch, 192 Кбит/с) Авторский одноголосый [Владимир Сонькин, с VHS]
• №6: Английский (АС3, 6 ch, 448 Кбит/с)

Субтитры: Русские, английские

--------------------------------------------------------------------
x264 [info]: frame I:1012 Avg QP:16.40 size:116142
x264 [info]: frame P:30864 Avg QP:18.99 size: 51530
x264 [info]: frame B:99596 Avg QP:20.78 size: 19147
--------------------------------------------------------------------

Полное имя : The.Big.Hit.1998.x264.BDRip.(720p).0ptimus.mkv
Формат : Matroska
Версия формата : Version 4 / Version 2
Размер файла : 4,88 Гбайт
Продолжительность : 1 ч. 31 м.
Общий поток : 7645 Кбит/сек
Название фильма : Большое дело | The Big Hit [1998] -=BDRip (720p) by 0ptimus=-
Дата кодирования : UTC 2013-10-23 14:01:05
Программа кодирования : mkvmerge v6.1.0 ('Old Devil') built on Mar 2 2013 14:32:37
Библиотека кодирования : libebml v1.3.0 + libmatroska v1.4.0
Attachment : Yes

Видео
Идентификатор : 1
Формат : AVC
Формат/Информация : Advanced Video Codec
Профиль формата : High@L4.1
Параметр CABAC формата : Да
Параметр ReFrames формата : 8 кадров
Идентификатор кодека : V_MPEG4/ISO/AVC
Продолжительность : 1 ч. 31 м.
Битрейт : 5277 Кбит/сек
Ширина : 1280 пикселей
Высота : 694 пикселя
Соотношение сторон : 16:9
Частота кадров : 23,976 кадра/сек
Цветовое пространство : YUV
Субдискретизация насыщенности : 4:2:0
Битовая глубина : 8 бит
Тип развёртки : Прогрессивная
Бит/(Пиксели*Кадры) : 0.248
Размер потока : 3,27 Гбайт (67%)
Заголовок : Rip by 0ptimus
Библиотека кодирования : x264 core 133 r2334 a3ac64b
Настройки программы : cabac=1 / ref=8 / deblock=1:-3:-3 / analyse=0x3:0x113 / me=umh / subme=11 / psy=1 / psy_rd=1.00:0.20 / mixed_ref=1 / me_range=48 / chroma_me=1 / trellis=2 / 8x8dct=1 / cqm=0 / deadzone=21,11 / fast_pskip=0 / chroma_qp_offset=-3 / threads=4 / lookahead_threads=1 / sliced_threads=0 / nr=0 / decimate=0 / interlaced=0 / bluray_compat=0 / constrained_intra=0 / bframes=11 / b_pyramid=2 / b_adapt=2 / b_bias=0 / direct=3 / weightb=1 / open_gop=0 / weightp=2 / keyint=240 / keyint_min=23 / scenecut=40 / intra_refresh=0 / rc_lookahead=40 / rc=2pass / mbtree=0 / bitrate=5277 / ratetol=1.0 / qcomp=0.60 / qpmin=0 / qpmax=69 / qpstep=4 / cplxblur=20.0 / qblur=0.5 / vbv_maxrate=50000 / vbv_bufsize=50000 / nal_hrd=none / ip_ratio=1.40 / pb_ratio=1.30 / aq=1:1.00
Язык : English

Аудио #1
Идентификатор : 2
Формат : AC-3
Формат/Информация : Audio Coding 3
Расширение режима : CM (complete main)
Идентификатор кодека : A_AC3
Продолжительность : 1 ч. 31 м.
Вид битрейта : Постоянный
Битрейт : 640 Кбит/сек
Каналы : 6 каналов
Расположение каналов : Front: L C R, Side: L R, LFE
Частота : 48,0 КГц
Битовая глубина : 16 бит
Метод сжатия : С потерями
Размер потока : 418 Мбайт (8%)
Заголовок : Дублированный AC3 5.1 @ 640 kbps
Язык : Russian

Аудио #2
Идентификатор : 3
Формат : AC-3
Формат/Информация : Audio Coding 3
Расширение режима : CM (complete main)
Идентификатор кодека : A_AC3
Продолжительность : 1 ч. 31 м.
Вид битрейта : Постоянный
Битрейт : 192 Кбит/сек
Каналы : 2 канала
Расположение каналов : Front: L R
Частота : 48,0 КГц
Битовая глубина : 16 бит
Метод сжатия : С потерями
Размер потока : 126 Мбайт (3%)
Заголовок : Многоголосый закадровый [R5] AC3 2.0 @ 192 kbps
Язык : Russian

Аудио #3
Идентификатор : 4
Формат : AC-3
Формат/Информация : Audio Coding 3
Расширение режима : CM (complete main)
Идентификатор кодека : A_AC3
Продолжительность : 1 ч. 31 м.
Вид битрейта : Постоянный
Битрейт : 448 Кбит/сек
Каналы : 6 каналов
Расположение каналов : Front: L C R, Side: L R, LFE
Частота : 48,0 КГц
Битовая глубина : 16 бит
Метод сжатия : С потерями
Размер потока : 293 Мбайт (6%)
Заголовок : Авторский [Леонид Володарский] AC3 5.1 @ 448 kbps
Язык : Russian

Аудио #4
Идентификатор : 5
Формат : AC-3
Формат/Информация : Audio Coding 3
Расширение режима : CM (complete main)
Идентификатор кодека : A_AC3
Продолжительность : 1 ч. 31 м.
Вид битрейта : Постоянный
Битрейт : 448 Кбит/сек
Каналы : 6 каналов
Расположение каналов : Front: L C R, Side: L R, LFE
Частота : 48,0 КГц
Битовая глубина : 16 бит
Метод сжатия : С потерями
Размер потока : 293 Мбайт (6%)
Заголовок : Авторский [Юрий Живов] AC3 5.1 @ 448 kbps
Язык : Russian

Аудио #5
Идентификатор : 6
Формат : AC-3
Формат/Информация : Audio Coding 3
Расширение режима : CM (complete main)
Идентификатор кодека : A_AC3
Продолжительность : 1 ч. 31 м.
Вид битрейта : Постоянный
Битрейт : 192 Кбит/сек
Каналы : 2 канала
Расположение каналов : Front: L R
Частота : 48,0 КГц
Битовая глубина : 16 бит
Метод сжатия : С потерями
Размер потока : 126 Мбайт (3%)
Заголовок : Авторский [Михаил Сонькин, VHS] AC3 2.0 @ 192 kbps
Язык : Russian

Аудио #6
Идентификатор : 7
Формат : AC-3
Формат/Информация : Audio Coding 3
Расширение режима : CM (complete main)
Идентификатор кодека : A_AC3
Продолжительность : 1 ч. 31 м.
Вид битрейта : Постоянный
Битрейт : 448 Кбит/сек
Каналы : 6 каналов
Расположение каналов : Front: L C R, Side: L R, LFE
Частота : 48,0 КГц
Битовая глубина : 16 бит
Метод сжатия : С потерями
Размер потока : 293 Мбайт (6%)
Заголовок : AC3 5.1 @ 448 kbps
Язык : English

Текст #1
Идентификатор : 8
Формат : UTF-8
Идентификатор кодека : S_TEXT/UTF8
Идентификатор кодека/Информация : UTF-8 Plain Text
Язык : Russian

Текст #2
Идентификатор : 9
Формат : UTF-8
Идентификатор кодека : S_TEXT/UTF8
Идентификатор кодека/Информация : UTF-8 Plain Text
Язык : English

Меню
00:00:00.000 : en:00:00:00.000
00:05:18.652 : en:00:05:18.652
00:13:46.534 : en:00:13:46.534
00:18:08.879 : en:00:18:08.879
00:22:13.624 : en:00:22:13.624
00:28:31.668 : en:00:28:31.668
00:34:54.926 : en:00:34:54.926
00:40:59.165 : en:00:40:59.165
00:56:24.506 : en:00:56:24.506
00:59:03.206 : en:00:59:03.206
01:06:28.860 : en:01:06:28.860
01:09:05.892 : en:01:09:05.892
01:16:05.352 : en:01:16:05.352
01:17:06.372 : en:01:17:06.372
01:20:42.838 : en:01:20:42.838
01:24:36.405 : en:01:24:36.405




Релиз от:
загрузка...
Правила, инструкции, FAQ!!!
Торрент  Добавлен [23 окт 2013, 20:26] Скачать торрент
Скачать торрент
[ Размер 24.98 КБ / Просмотров 12 ]

Статус  
 
Размер  4.88 ГБ
Приватный: Нет (DHT включён)
.torrent скачан  0
Как залить торрент? | Как скачать Torrent? | Как смотреть и слушать онлайн?  


     Отправить личное сообщение
   
Страница 1 из 1
Показать сообщения за:  Поле сортировки  
Начать новую тему Ответить на тему

   Похожие торренты   Автор   Ответы   Просмотры   Последнее сообщение 
В этой теме нет новых непрочитанных сообщений. Скачать торрент Правое дело / Just Cause (1995) BDRip 720p

в форуме 720p | 1080p, Размер: 2.17 ГБ, Здоровье: 0%

Anonymous

0
0|0

18
0

18 фев 2014, 09:01

Anonymous Перейти к последнему сообщению

В этой теме нет новых непрочитанных сообщений. Скачать торрент Дело в тебе / A Case of You (2013) BDRip 720p | L

в форуме 720p | 1080p, Размер: 3.94 ГБ, Здоровье: 0%

Anonymous

0
0|0

32
0

30 апр 2014, 22:20

Anonymous Перейти к последнему сообщению

В этой теме нет новых непрочитанных сообщений. Скачать торрент Проверен Гарднер, Эрл Стенли - Сборник.Гиблое дело - Дело о нерешительной хостессе.Дело о тайне приемной дочери [Николай Козий, 1993, 32 kbps]

в форуме Детектив и Боевики, Размер: 268.4 МБ, Здоровье: 100%

Anonymous

0
3|1

0
0

20 ноя 2016, 10:24

Anonymous Перейти к последнему сообщению

В этой теме нет новых непрочитанных сообщений. Скачать торрент Столкновение с бездной (1998) BDRip 720p | D

в форуме 720p | 1080p, Размер: 3.08 ГБ, Здоровье: 100%

Anonymous

0
19|0

36
286

21 апр 2014, 18:04

Anonymous Перейти к последнему сообщению

В этой теме нет новых непрочитанных сообщений. Скачать торрент Переговорщик / The Negotiator (1998) BDRip 720p | D, A

в форуме 720p | 1080p, Размер: 8.1 ГБ, Здоровье: 0%

Anonymous

0
0|0

21
0

02 фев 2014, 11:07

Anonymous Перейти к последнему сообщению



Сейчас этот форум просматривают: нет зарегистрированных пользователей и гости: 1


Вы не можете начинать темы
Вы не можете отвечать на сообщения
Вы не можете редактировать свои сообщения
Вы не можете удалять свои сообщения
Вы не можете добавлять вложения

Перейти:  

!ВНИМАНИЕ!
 Ресурс не предоставляет электронные версии произведений, а занимается лишь коллекционированием и каталогизацией ссылок, присылаемых и публикуемых на форуме нашими читателями. Если вы являетесь правообладателем какого-либо представленного материала и не желаете чтобы ссылка на него находилась в нашем каталоге, свяжитесь с нами и мы незамедлительно удалим её. Файлы для обмена на трекере предоставлены пользователями сайта, и администрация не несёт ответственности за их содержание. Просьба не заливать файлы, защищенные авторскими правами, а также файлы нелегального содержания!
cron