На всех торрентах на трекере установлена скидка на скачивание в размере 100 процентов(а).
 Возможность скачивания торрента НЕ зависит от ограничений при низком ратио, низком аплоаде, требуемом ратио или требуемом аплоаде.


Начать новую тему Ответить на тему
Статистика раздачи
Размер: 2.17 ГБ | Добавлен: 22 окт 2013, 17:08 | Скачали: 0
Сидеров: 0  [0 байт/сек]    Личеров: 0  [0 байт/сек]
Пред. тема | След. тема 

Автор
Сообщение

СообщениеДобавлено: 22 окт 2013, 17:08 

Название: Мое сердце биться перестало
Оригинальное название: De battre mon coeur s'est arrete (The Beat That My Heart Skipped)
Год выхода: 2005
Жанр: Боевик, триллер, драма, мелодрама, криминал, музыка
Режиссер: Жак Одиар

В ролях: Ромен Дюри, Нильс Ареструп, Джонатан Цассаи, Жиль Коэн, Лин Дэн Пэм, Ор Атика, Эммануэль Дево, Мелани Лоран, Агнес Обе, Этьен Диран

О фильме:
Тома 28 лет и ему уготовано продолжать бизнес своего отца: заниматься темными, полукриминальными сделками с недвижимостью. Это подлый и порою очень жестокий бизнес. Но случайная встреча внушает ему надежду, что он может, как его мать, стать концертирующим пианистом. Он начинает серьезно готовиться к прослушиванию и занимается с китайской пианисткой-виртуозом. Она ни слова не говорит по-французски, музыка единственное их средство общения. Желание перемен приводит к тому, что он начинает мечтать о прекрасной любви... Но пока что Тому приходится жить двойной жизнью - днем он играет на рояле, а по вечерам, вооружившись бейсбольной битой, помогает отцу выбивать деньги из должников и выгонять иммигрантов-нелегалов из пустующих квартир


Страна: Франция
Студия: Canal+, Ciné Cinémas, Cofimage, France 3 Cinéma, Région Ile-de-France, Sédif Productions, Why Not Productions
Продолжительность: 01:46:32
Перевод: Профессиональный многоголосый закадровый


Кодек: MPEG-4 AVC
Качество: HDRip (AVC)
Видео: 2154 Кбит/с, 1024x552
Звук: Русский, французский (AC3, 6 ch, 384 Кбит/с)
Субтитры: Русские, английские


Формат : Matroska
Версия формата : Version 4 / Version 2
Размер файла : 2,17 Гбайт
Продолжительность : 1 ч. 46 м.
Общий поток : 2922 Кбит/сек
Название фильма : The.Beat.That.My.Heart.Skipped.2005.HDRip.(AVC)
Дата кодирования : UTC 2013-10-20 16:36:33
Программа кодирования : mkvmerge v6.3.0 ('You can't stop me!') built on Jun 28 2013 20:09:41
Библиотека кодирования : libebml v1.3.0 + libmatroska v1.4.0

Видео
Идентификатор : 1
Формат : AVC
Формат/Информация : Advanced Video Codec
Профиль формата : High@L4.1
Параметр CABAC формата : Да
Параметр ReFrames формата : 10 кадров
Идентификатор кодека : V_MPEG4/ISO/AVC
Продолжительность : 1 ч. 46 м.
Битрейт : 2154 Кбит/сек
Ширина : 1024 пикселя
Высота : 552 пикселя
Соотношение сторон : 1,85:1
Режим частоты кадров : Постоянный
Частота кадров : 24,000 кадра/сек
Цветовое пространство : YUV
Субдискретизация насыщенности : 4:2:0
Битовая глубина : 8 бит
Тип развёртки : Прогрессивная
Бит/(Пиксели*Кадры) : 0.159
Размер потока : 1,56 Гбайт (72%)
Заголовок : The.Beat.That.My.Heart.Skipped.2005.HDRip.(AVC)
Библиотека кодирования : x264 core 130 r2273 b3065e6
Настройки программы : cabac=1 / ref=10 / deblock=1:-3:-3 / analyse=0x3:0x133 / me=umh / subme=10 / psy=1 / psy_rd=1.00:0.15 / mixed_ref=1 / me_range=32 / chroma_me=1 / trellis=2 / 8x8dct=1 / cqm=0 / deadzone=21,11 / fast_pskip=0 / chroma_qp_offset=-3 / threads=6 / lookahead_threads=1 / sliced_threads=0 / nr=0 / decimate=1 / interlaced=0 / bluray_compat=0 / constrained_intra=0 / bframes=8 / b_pyramid=2 / b_adapt=1 / b_bias=0 / direct=3 / weightb=1 / open_gop=1 / weightp=2 / keyint=240 / keyint_min=23 / scenecut=40 / intra_refresh=0 / rc_lookahead=50 / rc=2pass / mbtree=1 / bitrate=2154 / ratetol=1.0 / qcomp=0.60 / qpmin=0 / qpmax=69 / qpstep=4 / cplxblur=20.0 / qblur=0.5 / ip_ratio=1.40 / aq=1:1.00
Язык : English
Default : Да
Forced : Нет

Аудио #1
Идентификатор : 2
Формат : AC-3
Формат/Информация : Audio Coding 3
Расширение режима : CM (complete main)
Параметр Endianness формата : Big
Идентификатор кодека : A_AC3
Продолжительность : 1 ч. 46 м.
Вид битрейта : Постоянный
Битрейт : 384 Кбит/сек
Каналы : 6 каналов
Расположение каналов : Front: L C R, Side: L R, LFE
Частота : 48,0 КГц
Битовая глубина : 16 бит
Метод сжатия : С потерями
Размер потока : 293 Мбайт (13%)
Заголовок : Профессиональный многоголосый (DVD9 NTSC)
Язык : Russian
Default : Да
Forced : Нет

Аудио #2
Идентификатор : 3
Формат : AC-3
Формат/Информация : Audio Coding 3
Расширение режима : CM (complete main)
Параметр Endianness формата : Big
Идентификатор кодека : A_AC3
Продолжительность : 1 ч. 46 м.
Вид битрейта : Постоянный
Битрейт : 384 Кбит/сек
Каналы : 6 каналов
Расположение каналов : Front: L C R, Side: L R, LFE
Частота : 48,0 КГц
Битовая глубина : 16 бит
Метод сжатия : С потерями
Размер потока : 293 Мбайт (13%)
Заголовок : Оригинал
Язык : French
Default : Нет
Forced : Нет

Текст #1
Идентификатор : 4
Формат : UTF-8
Идентификатор кодека : S_TEXT/UTF8
Идентификатор кодека/Информация : UTF-8 Plain Text
Заголовок : Русские
Язык : Russian
Default : Да
Forced : Нет

Текст #2
Идентификатор : 5
Формат : UTF-8
Идентификатор кодека : S_TEXT/UTF8
Идентификатор кодека/Информация : UTF-8 Plain Text
Заголовок : Английские
Язык : English
Default : Нет
Forced : Нет



загрузка...
Правила, инструкции, FAQ!!!
Торрент  Добавлен [22 окт 2013, 17:08] Скачать торрент
Скачать торрент
[ Размер 11.3 КБ / Просмотров 8 ]

Статус  
 
Размер  2.17 ГБ
Приватный: Нет (DHT включён)
.torrent скачан  0
Как залить торрент? | Как скачать Torrent? | Как смотреть и слушать онлайн?  


     Отправить личное сообщение
   
Страница 1 из 1
Показать сообщения за:  Поле сортировки  
Начать новую тему Ответить на тему

   Похожие торренты   Автор   Ответы   Просмотры   Последнее сообщение 
В этой теме нет новых непрочитанных сообщений. Скачать торрент Проверен Механика сердца / Jack et la mécanique du coeur (2013) HDRip | L2

в форуме Зарубежные мультфильмы, Размер: 1.37 ГБ, Здоровье: 100%

Anonymous

0
152|1

66
2781

10 июл 2014, 23:17

Anonymous Перейти к последнему сообщению

В этой теме нет новых непрочитанных сообщений. Скачать торрент Проверен (Pop) Daniel Levi - Un Coeur Ouvert - 2005, APE (image+.cue), lossless

в форуме Зарубежная музыка, Размер: 318.92 МБ, Здоровье: 0%

Anonymous

0
0|0

2
0

12 авг 2016, 18:58

Anonymous Перейти к последнему сообщению

В этой теме нет новых непрочитанных сообщений. Скачать торрент Проверен Сердце дракона / DragonHeart (1996) HDRip | P

в форуме Фантастика, Фэнтези, Размер: 1.45 ГБ, Здоровье: 100%

Anonymous

0
62|3

76
72

27 янв 2015, 19:42

Anonymous Перейти к последнему сообщению

В этой теме нет новых непрочитанных сообщений. Скачать торрент Проверен Сердце Ангела / Angel Heart (1987) HDRip

в форуме Триллеры, Размер: 1.45 ГБ, Здоровье: 100%

Anonymous

0
61|7

63
301

09 ноя 2014, 09:11

Anonymous Перейти к последнему сообщению

В этой теме нет новых непрочитанных сообщений. Скачать торрент Проверен В сердце моря / In the heart of the sea (2015) HDRip | iTunes

в форуме Приключения, Размер: 1.45 ГБ, Здоровье: 100%

Anonymous

0
7|0

140
1

20 мар 2016, 23:29

Anonymous Перейти к последнему сообщению



Сейчас этот форум просматривают: нет зарегистрированных пользователей и гости: 1


Вы не можете начинать темы
Вы не можете отвечать на сообщения
Вы не можете редактировать свои сообщения
Вы не можете удалять свои сообщения
Вы не можете добавлять вложения

Перейти:  

!ВНИМАНИЕ!
 Ресурс не предоставляет электронные версии произведений, а занимается лишь коллекционированием и каталогизацией ссылок, присылаемых и публикуемых на форуме нашими читателями. Если вы являетесь правообладателем какого-либо представленного материала и не желаете чтобы ссылка на него находилась в нашем каталоге, свяжитесь с нами и мы незамедлительно удалим её. Файлы для обмена на трекере предоставлены пользователями сайта, и администрация не несёт ответственности за их содержание. Просьба не заливать файлы, защищенные авторскими правами, а также файлы нелегального содержания!