На всех торрентах на трекере установлена скидка на скачивание в размере 100 процентов(а).
 Возможность скачивания торрента НЕ зависит от ограничений при низком ратио, низком аплоаде, требуемом ратио или требуемом аплоаде.


Начать новую тему Ответить на тему
Статистика раздачи
Размер: 7.52 ГБ | Добавлен: 21 окт 2013, 22:46 | Скачали: 0
Сидеров: 0  [0 байт/сек]    Личеров: 0  [0 байт/сек]
Пред. тема | След. тема 

Автор
Сообщение

СообщениеДобавлено: 21 окт 2013, 22:46 

Название: Бумажный дом
Оригинальное название: Paperhouse
Год выхода: 1988
Жанр: Ужасы, фэнтези, триллер, драма, мелодрама, детектив
Режиссер: Бернард Роуз

В ролях: Шарлотта Бурк, Джейн Бертиш, Саманта Кехилл, Гленн Хедли, Сара Ньюболд, Гари Блисдэйл, Эллиотт Спирс, Джемма Джонс, Стив О’Доннелл, Бен Кросс, Карен Гледхилл, Барбара Кеог

О фильме:
Одиннадцатилетняя Анна плохо контактирует с окружающими и от того чувствует себя одинокой и никем не понятой. Однажды она обнаруживает, что нарисованный ей домик, начинает оживать в каждом ее сне, и что она способна влиять на ход собственных сновидений, дополняя свой рисунок. Поняв это Анна через несколько дней становится полноправной хозяйкой своей собственной страны, куда легко перенестись, стоит только закрыть глаза и заснуть. Позже девочка начинает замечать, что события реальные и «нарисованные» постепенно приходят в какое-то странное взаимодействие друг с другом. Рисунок начинает поглощать ее, контролировать ее мысли, и возможно, собирается ее погубить. Тонкая грань между реальностью и воображением размывается. Кошмар затягивает Анну в свою западню. Выберется ли она из своих страхов живой?
Огромная благодарность Media-Art-Club за созданный постер к раздаче!
Рейтинг PG-13 - Детям до 13 лет просмотр не желателен
Настоятельное предупреждение родителям. Данный рейтинг получают фильмы, содержание которых может считаться неприемлемым для детей, не достигших 13-летнего возраста.

В фильме отсутствуют сцены с насилием и «обнажёнкой», но уже могут присутствовать неконкретизированные эпизоды с наркотиками и слова, связанные с сексом.
Полное имя : H:ФильмСделать русский переводГотовые сделаные релизыBumazhnuj.dom.1988.x264.BDRip.1080p-MediaClub.mkv
Формат : Matroska
Версия формата : Version 2
Размер файла : 7,52 Гбайт
Продолжительность : 1 ч. 32 м.
Общий поток : 11,6 Мбит/сек
Название фильма : Bumazhnuj dom (1988) BDRip 1080p=MediaClub=-[Викс]-
Дата кодирования : UTC 2013-10-14 17:28:57
Программа кодирования : mkvmerge v4.2.0 ('No Talking') сборка от Jul 28 2010 18:38:23
Библиотека кодирования : libebml v1.0.0 + libmatroska v1.0.0

Видео
Идентификатор : 1
Формат : AVC
Формат/Информация : Advanced Video Codec
Профиль формата : High@L4.1
Параметр CABAC формата : Да
Параметр ReFrames формата : 4 кадра
Идентификатор кодека : V_MPEG4/ISO/AVC
Продолжительность : 1 ч. 32 м.
Битрейт : 10,5 Мбит/сек
Ширина : 1920 пикселей
Высота : 1036 пикселей
Соотношение сторон : 1,85:1
Режим частоты кадров : Постоянный
Частота кадров : 23,976 кадра/сек
Цветовое пространство : YUV
Субдискретизация насыщенности : 4:2:0
Битовая глубина : 8 бит
Тип развёртки : Прогрессивная
Бит/(Пиксели*Кадры) : 0.220
Размер потока : 6,64 Гбайт (88%)
Библиотека кодирования : x264 core 133 r2334 a3ac64b
Настройки программы : cabac=1 / ref=4 / deblock=1:-3:-3 / analyse=0x3:0x133 / me=umh / subme=11 / psy=1 / psy_rd=1.00:0.20 / mixed_ref=1 / me_range=48 / chroma_me=1 / trellis=2 / 8x8dct=1 / cqm=0 / deadzone=21,11 / fast_pskip=0 / chroma_qp_offset=-3 / threads=6 / lookahead_threads=1 / sliced_threads=0 / nr=0 / decimate=0 / interlaced=0 / bluray_compat=0 / constrained_intra=0 / bframes=8 / b_pyramid=2 / b_adapt=2 / b_bias=0 / direct=3 / weightb=1 / open_gop=0 / weightp=2 / keyint=240 / keyint_min=23 / scenecut=40 / intra_refresh=0 / rc_lookahead=40 / rc=2pass / mbtree=0 / bitrate=10500 / ratetol=1.0 / qcomp=0.60 / qpmin=0 / qpmax=69 / qpstep=4 / cplxblur=20.0 / qblur=0.5 / vbv_maxrate=50000 / vbv_bufsize=55000 / nal_hrd=none / ip_ratio=1.40 / pb_ratio=1.30 / aq=1:1.00
Язык : English
Default : Да
Forced : Нет

Аудио #1
Идентификатор : 2
Формат : AC-3
Формат/Информация : Audio Coding 3
Расширение режима : CM (complete main)
Параметр Endianness формата : Big
Идентификатор кодека : A_AC3
Продолжительность : 1 ч. 32 м.
Вид битрейта : Постоянный
Битрейт : 160 Кбит/сек
Каналы : 2 канала
Расположение каналов : Front: L R
Частота : 48,0 КГц
Битовая глубина : 16 бит
Метод сжатия : С потерями
Размер потока : 106 Мбайт (1%)
Заголовок : PM
Язык : Russian
Default : Да
Forced : Нет

Аудио #2
Идентификатор : 3
Формат : AC-3
Формат/Информация : Audio Coding 3
Расширение режима : CM (complete main)
Параметр Endianness формата : Big
Идентификатор кодека : A_AC3
Продолжительность : 1 ч. 32 м.
Вид битрейта : Постоянный
Битрейт : 192 Кбит/сек
Каналы : 2 канала
Расположение каналов : Front: L R
Частота : 48,0 КГц
Битовая глубина : 16 бит
Метод сжатия : С потерями
Размер потока : 127 Мбайт (2%)
Заголовок : AP Kartsev
Язык : Russian
Default : Нет
Forced : Нет

Аудио #3
Идентификатор : 4
Формат : DTS
Формат/Информация : Digital Theater Systems
Режим : 16
Параметр Endianness формата : Big
Идентификатор кодека : A_DTS
Продолжительность : 1 ч. 32 м.
Вид битрейта : Постоянный
Битрейт : 768 Кбит/сек
Каналы : 2 канала
Расположение каналов : Front: L R
Частота : 48,0 КГц
Битовая глубина : 16 бит
Метод сжатия : С потерями
Размер потока : 509 Мбайт (7%)
Язык : English
Default : Нет
Forced : Нет

Меню
00:00:00.000 : :Chapter 01
00:02:41.285 : :Chapter 02
00:09:32.405 : :Chapter 03
00:15:28.969 : :Chapter 04
00:22:24.718 : :Chapter 05
00:31:15.873 : :Chapter 06
00:36:48.581 : :Chapter 07
00:43:36.739 : :Chapter 08
00:49:42.813 : :Chapter 09
00:57:46.713 : :Chapter 10
01:05:04.525 : :Chapter 11
01:09:06.015 : :Chapter 12
01:14:04.064 : :Chapter 13
01:19:04.656 : :Chapter 14
01:24:46.872 : :Chapter 15
01:29:56.724 : :Chapter 16
01:32:35.131 : :Chapter 17
x264 [info]: frame I:774 Avg QP:18.15 size:186729
x264 [info]: frame P:27074 Avg QP:20.54 size: 98675
x264 [info]: frame B:105343 Avg QP:22.43 size: 42478


Страна: Великобритания
Студия: Working Title Films
Продолжительность: 01:32:35
Перевод: Профессиональный многоголосый, авторский одноголосый (П. Карцев)


Кодек: x264
Качество: BDRip 1080p
Видео: MPEG-4 AVC, 10.5 Мбит/с, 1920x1036, 23.976 кадр/с
Звук:
Аудио #1: Русский (AC3, 2 ch, 160 Кбит/с) / Профессиональный многоголосый
Аудио #2: Русский (AC3, 2 ch, 192 Кбит/с) / Авторский одноголосый (П. Карцев)
Аудио #3: Английский (DTS, 2 ch, 768 Кбит/с)

Семпл



Релиз от: Рип, работа с аудио - Викс
загрузка...
Правила, инструкции, FAQ!!!
Торрент  Добавлен [21 окт 2013, 22:46] Скачать торрент
Скачать торрент
[ Размер 38.93 КБ / Просмотров 12 ]

Статус  
 
Размер  7.52 ГБ
Приватный: Нет (DHT включён)
.torrent скачан  0
Как залить торрент? | Как скачать Torrent? | Как смотреть и слушать онлайн?  


     Отправить личное сообщение
   
Страница 1 из 1
Показать сообщения за:  Поле сортировки  
Начать новую тему Ответить на тему

   Похожие торренты   Автор   Ответы   Просмотры   Последнее сообщение 
В этой теме нет новых непрочитанных сообщений. Скачать торрент Проверен Виллоу / Willow (1988) BDRip [1080p]

в форуме 720p | 1080p, Размер: 14.65 ГБ, Здоровье: 100%

Гость

0
58|1

29
1

11 дек 2014, 21:40

Гость Перейти к последнему сообщению

В этой теме нет новых непрочитанных сообщений. Скачать торрент Проверен Бумажный роман в 3Д / Paperman 3D (Джон Карс / John Kahrs) [2012, мультфильм, короткометражка, мелодрама, комедия, BDrip-AVC] Half OverUnder / Вертикальная анаморфная стереопара

в форуме HD-Video в 3D, Размер: 421.12 МБ, Здоровье: 100%

Anonymous

0
27|8

67
1

02 ноя 2014, 09:49

Anonymous Перейти к последнему сообщению

В этой теме нет новых непрочитанных сообщений. Скачать торрент Проверен Замужем за мафией / Married to the Mob (1988) BDRip 1080p | D, P, P2, A

в форуме 720p | 1080p, Размер: 11.65 ГБ, Здоровье: 81%

Гость

0
27|33

32
36

18 ноя 2016, 21:42

Гость Перейти к последнему сообщению

В этой теме нет новых непрочитанных сообщений. Скачать торрент Проверен Кровавый спорт / Bloodsport (1988) BDRip 1080p

в форуме 720p | 1080p, Размер: 7.75 ГБ, Здоровье: 100%

Anonymous

0
15|5

24
305

27 сен 2014, 19:52

Anonymous Перейти к последнему сообщению

В этой теме нет новых непрочитанных сообщений. Скачать торрент Проверен Человек дождя / Rain Man (1988) BDRip 1080p | P, A | Remastered

в форуме 720p | 1080p, Размер: 11.55 ГБ, Здоровье: 100%

Гость

0
21|1

107
18

07 дек 2014, 23:15

Гость Перейти к последнему сообщению



Сейчас этот форум просматривают: нет зарегистрированных пользователей и гости: 3


Вы не можете начинать темы
Вы не можете отвечать на сообщения
Вы не можете редактировать свои сообщения
Вы не можете удалять свои сообщения
Вы не можете добавлять вложения

Перейти:  

!ВНИМАНИЕ!
 Ресурс не предоставляет электронные версии произведений, а занимается лишь коллекционированием и каталогизацией ссылок, присылаемых и публикуемых на форуме нашими читателями. Если вы являетесь правообладателем какого-либо представленного материала и не желаете чтобы ссылка на него находилась в нашем каталоге, свяжитесь с нами и мы незамедлительно удалим её. Файлы для обмена на трекере предоставлены пользователями сайта, и администрация не несёт ответственности за их содержание. Просьба не заливать файлы, защищенные авторскими правами, а также файлы нелегального содержания!