На всех торрентах на трекере установлена скидка на скачивание в размере 100 процентов(а).
 Возможность скачивания торрента НЕ зависит от ограничений при низком ратио, низком аплоаде, требуемом ратио или требуемом аплоаде.


Начать новую тему Ответить на тему
Статистика раздачи
Размер: 6.22 ГБ | Добавлен: 21 окт 2013, 19:53 | Скачали: 0
Сидеров: 0  [0 байт/сек]    Личеров: 0  [0 байт/сек]
Пред. тема | След. тема 

Автор
Сообщение

СообщениеДобавлено: 21 окт 2013, 19:53 

Название: Горячее местечко
Оригинальное название: The Hot Spot
Год выпуска: 1990
Жанр: Триллер, драма, мелодрама, криминал
Выпущено: США, Orion Pictures Corporation
Режиссер: Дэннис Хоппер

В ролях: Дон Джонсон, Вирджиния Мэдсен, Дженнифер Коннелли, Чарльз Мартин Смит, Уильям Сэдлер, Джерри Хардин, Бэрри Корбин, Леон Риппи, Джек Нэнс, Вёрджил Фрай, Кирк Хантер

О фильме: Откуда приехал Гарри Мэдокс в этот захолустный техасский городишко? Мы не знаем. Чем он занимался прежде? Мы не знаем. Кто он? Мы не знаем. Но мы прекрасно понимаем, что он здесь человек случайный и долго не задержится. Единственная его проблема — как убить время. Разве что пойти в местный бар «Горячая точка» и напиться там до посинения? Или откликнуться на зазывный женский взгляд, забыв о том, что за собой зовёт жена твоего начальника? Впрочем, есть ещё один вариант. А что если ограбить местный банк?

Качество: BDRip 720p
Размер: 6.22 ГБ
Продолжительность: 02:10:01

Видео: MPEG-4 AVC, 5750 Кбит/с, 1280x694
Аудио 1: русский, 48 kHz, AC3, 2 ch, 192 kbps avg, [Профессиональный многоголосый, OPT]
Аудио 2: русский, 48 kHz, AC3, 2 ch, 192 kbps avg, [Профессиональный двухголосый, HTB+]
Аудио 3: русский, 48 kHz, AC3, 2 ch, 192 kbps avg, [Авторский, Андрей Гаврилов]
Аудио 4: русский, 48 kHz, AC3, 2 ch, 192 kbps avg, [Любительский одноголосый]
Аудио 5: английский, 48 kHz, AC3, 2 ch, 192 kbps avg, [Оригинал]
Субтитры 1: русские
Субтитры 2: английские



Herbst

Мораль сей басни — держи штаны на застёжке.

Весьма неплохой триллер. Особенно хороша Вирджиния Мэдсен в роли коварной супруги старого торговца машинами. Дженнифер Коннели здесь совсем юная и выделяется разве что редкой свежестью. Мэдсен гораздо интересней. Уже тогда подержанный Дон Джонсон, дважды муж Мелани Гриффит, в роли эдакого захолустного ловеласа.
Полнейшее отсутствие какой-либо морали у Гарри приводит его не только к ограблению банка и убийству шантажиста, но и к краху надежд на светлое будущее с чистой милой девушкой. А что удивляться, если он не устоял перед искушением залезть под юбку очаровательной Долли. А Долли не из тех, кто упустит добычу из своих когтей. Её амплуа — чёрная вдова.
Финал разыгран просто блестяще! Гротескный конец. За это и поставлю фильму

7 из 10

Кинопоиск
Общее
Уникальный идентификатор : 215990616690645128575921280989590819025 (0xA27E47966DE20A6986FB6648097D90D1)
Полное имя : E:VideoGorjachee.mestechko.1990.x264.BDRip.720p.mkv
Формат : Matroska
Версия формата : Version 4 / Version 2
Размер файла : 6,22 Гбайт
Продолжительность : 2 ч. 10 м.
Общий поток : 6846 Кбит/сек
Название фильма : Горячее местечко (Горячая точка) / The Hot Spot / 1990 / BDRip -- STarankov
Дата кодирования : UTC 2013-10-21 06:56:19
Программа кодирования : mkvmerge v6.4.1 ('Omega Point') built on Sep 16 2013 22:05:10
Библиотека кодирования : libebml v1.3.0 + libmatroska v1.4.1

Видео
Идентификатор : 1
Формат : AVC
Формат/Информация : Advanced Video Codec
Профиль формата : High@L4.1
Параметр CABAC формата : Да
Параметр ReFrames формата : 4 кадра
Идентификатор кодека : V_MPEG4/ISO/AVC
Продолжительность : 2 ч. 10 м.
Битрейт : 5750 Кбит/сек
Ширина : 1280 пикселей
Высота : 694 пикселя
Соотношение сторон : 1,85:1
Режим частоты кадров : Постоянный
Частота кадров : 23,976 кадра/сек
Цветовое пространство : YUV
Субдискретизация насыщенности : 4:2:0
Битовая глубина : 8 бит
Тип развёртки : Прогрессивная
Бит/(Пиксели*Кадры) : 0.270
Размер потока : 5,22 Гбайт (84%)
Библиотека кодирования : x264 core 133 r2334 a3ac64b
Настройки программы : cabac=1 / ref=4 / deblock=1:-1:-1 / analyse=0x3:0x113 / me=umh / subme=10 / psy=1 / psy_rd=1.00:0.15 / mixed_ref=1 / me_range=24 / chroma_me=1 / trellis=2 / 8x8dct=1 / cqm=0 / deadzone=21,11 / fast_pskip=0 / chroma_qp_offset=-3 / threads=6 / lookahead_threads=1 / sliced_threads=0 / nr=0 / decimate=1 / interlaced=0 / bluray_compat=0 / constrained_intra=0 / bframes=12 / b_pyramid=2 / b_adapt=2 / b_bias=0 / direct=1 / weightb=1 / open_gop=0 / weightp=2 / keyint=230 / keyint_min=23 / scenecut=40 / intra_refresh=0 / rc_lookahead=40 / rc=crf / mbtree=0 / crf=19.0 / qcomp=0.60 / qpmin=0 / qpmax=69 / qpstep=4 / vbv_maxrate=50000 / vbv_bufsize=62500 / crf_max=0.0 / nal_hrd=none / ip_ratio=1.40 / pb_ratio=1.30 / aq=1:1.00
Язык : English
Default : Да
Forced : Нет

Аудио #1
Идентификатор : 2
Формат : AC-3
Формат/Информация : Audio Coding 3
Расширение режима : CM (complete main)
Параметр Endianness формата : Big
Идентификатор кодека : A_AC3
Продолжительность : 2 ч. 10 м.
Вид битрейта : Постоянный
Битрейт : 192 Кбит/сек
Каналы : 2 канала
Расположение каналов : Front: L R
Частота : 48,0 КГц
Битовая глубина : 16 бит
Метод сжатия : С потерями
Размер потока : 179 Мбайт (3%)
Заголовок : MVO (OPT)
Язык : Russian
Default : Да
Forced : Нет

Аудио #2
Идентификатор : 3
Формат : AC-3
Формат/Информация : Audio Coding 3
Расширение режима : CM (complete main)
Параметр Endianness формата : Big
Идентификатор кодека : A_AC3
Продолжительность : 2 ч. 10 м.
Вид битрейта : Постоянный
Битрейт : 192 Кбит/сек
Каналы : 2 канала
Расположение каналов : Front: L R
Частота : 48,0 КГц
Битовая глубина : 16 бит
Метод сжатия : С потерями
Размер потока : 179 Мбайт (3%)
Заголовок : DVO (HTB+)
Язык : Russian
Default : Нет
Forced : Нет

Аудио #3
Идентификатор : 4
Формат : AC-3
Формат/Информация : Audio Coding 3
Расширение режима : CM (complete main)
Параметр Endianness формата : Big
Идентификатор кодека : A_AC3
Продолжительность : 2 ч. 10 м.
Вид битрейта : Постоянный
Битрейт : 192 Кбит/сек
Каналы : 2 канала
Расположение каналов : Front: L R
Частота : 48,0 КГц
Битовая глубина : 16 бит
Метод сжатия : С потерями
Размер потока : 179 Мбайт (3%)
Заголовок : AVO (Андрей Гаврилов)
Язык : Russian
Default : Нет
Forced : Нет

Аудио #4
Идентификатор : 5
Формат : AC-3
Формат/Информация : Audio Coding 3
Расширение режима : CM (complete main)
Параметр Endianness формата : Big
Идентификатор кодека : A_AC3
Продолжительность : 2 ч. 10 м.
Вид битрейта : Постоянный
Битрейт : 192 Кбит/сек
Каналы : 2 канала
Расположение каналов : Front: L R
Частота : 48,0 КГц
Битовая глубина : 16 бит
Метод сжатия : С потерями
Размер потока : 179 Мбайт (3%)
Заголовок : VO (любительский одноголосый)
Язык : Russian
Default : Нет
Forced : Нет

Аудио #5
Идентификатор : 6
Формат : AC-3
Формат/Информация : Audio Coding 3
Расширение режима : CM (complete main)
Параметр Endianness формата : Big
Идентификатор кодека : A_AC3
Продолжительность : 2 ч. 10 м.
Вид битрейта : Постоянный
Битрейт : 192 Кбит/сек
Каналы : 2 канала
Расположение каналов : Front: L R
Частота : 48,0 КГц
Битовая глубина : 16 бит
Метод сжатия : С потерями
Размер потока : 179 Мбайт (3%)
Заголовок : Original
Язык : English
Default : Нет
Forced : Нет

Текст #1
Идентификатор : 7
Формат : UTF-8
Идентификатор кодека : S_TEXT/UTF8
Идентификатор кодека/Информация : UTF-8 Plain Text
Заголовок : русский
Язык : Russian
Default : Нет
Forced : Нет

Текст #2
Идентификатор : 8
Формат : UTF-8
Идентификатор кодека : S_TEXT/UTF8
Идентификатор кодека/Информация : UTF-8 Plain Text
Заголовок : английский
Default : Нет
Forced : Нет

---[Information] [20.10.2013 21:37:10] avs [info]: 1280x694p 1:1 @ 24000/1001 fps (cfr)
---[Information] [20.10.2013 21:37:10] x264 [info]: using SAR=1/1
---[Information] [20.10.2013 21:37:10] x264 [info]: using cpu capabilities: MMX2 SSE2Fast SSSE3 SSE4.2
---[Information] [20.10.2013 21:37:10] x264 [info]: profile High, level 4.1
---[Information] [21.10.2013 9:59:56] x264 [info]: frame I:1208 Avg QP:17.86 size: 94128
---[Information] [21.10.2013 9:59:56] x264 [info]: frame P:32138 Avg QP:18.83 size: 50473
---[Information] [21.10.2013 9:59:56] x264 [info]: frame B:153694 Avg QP:20.58 size: 26030
---[Information] [21.10.2013 9:59:56] x264 [info]: consecutive B-frames: 1.0% 0.8% 2.7% 8.9% 10.8% 49.5% 7.0% 2.3% 6.9% 0.9% 2.7% 4.8% 1.6%
---[Information] [21.10.2013 9:59:56] x264 [info]: mb I I16..4: 5.0% 83.9% 11.1%
---[Information] [21.10.2013 9:59:56] x264 [info]: mb P I16..4: 1.1% 33.6% 2.0% P16..4: 31.3% 22.4% 8.6% 0.0% 0.0% skip: 1.0%
---[Information] [21.10.2013 9:59:56] x264 [info]: mb B I16..4: 0.1% 4.3% 0.1% B16..8: 45.4% 15.0% 3.2% direct:12.9% skip:18.9% L0:44.2% L1:45.5% BI:10.4%
---[Information] [21.10.2013 9:59:56] x264 [info]: 8x8 transform intra:92.1% inter:64.4%
---[Information] [21.10.2013 9:59:56] x264 [info]: coded y,uvDC,uvAC intra: 95.4% 75.8% 36.9% inter: 49.6% 41.6% 1.6%
---[Information] [21.10.2013 9:59:56] x264 [info]: i16 v,h,dc,p: 30% 10% 16% 44%
---[Information] [21.10.2013 9:59:56] x264 [info]: i8 v,h,dc,ddl,ddr,vr,hd,vl,hu: 12% 8% 12% 9% 12% 12% 11% 12% 12%
---[Information] [21.10.2013 9:59:56] x264 [info]: i4 v,h,dc,ddl,ddr,vr,hd,vl,hu: 19% 9% 3% 8% 13% 14% 12% 11% 11%
---[Information] [21.10.2013 9:59:56] x264 [info]: i8c dc,h,v,p: 43% 26% 21% 10%
---[Information] [21.10.2013 9:59:56] x264 [info]: Weighted P-Frames: Y:8.2% UV:4.1%
---[Information] [21.10.2013 9:59:56] x264 [info]: ref P L0: 47.0% 13.0% 25.6% 13.1% 1.2% 0.0%
---[Information] [21.10.2013 9:59:56] x264 [info]: ref B L0: 79.8% 16.8% 3.5%
---[Information] [21.10.2013 9:59:56] x264 [info]: ref B L1: 85.8% 14.2%
---[Information] [21.10.2013 9:59:56] x264 [info]: kb/s:5882.68
---[Information] [21.10.2013 9:59:56] encoded 187040 frames, 4.20 fps, 5882.68 kb/s
--[Information] [21.10.2013 10:00:01] Final statistics
---[Information] [21.10.2013 10:00:01] Constant Quality Mode: Quality 19 computed...
---[Information] [21.10.2013 10:00:01] Video Bitrate Obtained (approximate): 5884 kbit/s
--[Information] [21.10.2013 10:00:01] MediaInfo
---[Information] File: E:RipGorjachee.mestechko.1990.x264.BDRipGorjachee.mestechko.1990.x264.BDRip.720p.mkv


загрузка...
Правила, инструкции, FAQ!!!
Торрент  Добавлен [21 окт 2013, 19:53] Скачать торрент
Скачать торрент
[ Размер 31.55 КБ / Просмотров 9 ]

Статус  
 
Размер  6.22 ГБ
Приватный: Нет (DHT включён)
.torrent скачан  0
Как залить торрент? | Как скачать Torrent? | Как смотреть и слушать онлайн?  


     Отправить личное сообщение
   
Страница 1 из 1
Показать сообщения за:  Поле сортировки  
Начать новую тему Ответить на тему

   Похожие торренты   Автор   Ответы   Просмотры   Последнее сообщение 
В этой теме нет новых непрочитанных сообщений. Скачать торрент Проверен (Progressive Rock-Hard) Spot - Spot - 1971, FLAC (image+.cue), lossless

в форуме Progressive & Art-Rock, Размер: 267.51 МБ, Здоровье: 0%

Anonymous

0
0|0

0
0

01 сен 2016, 20:11

Anonymous Перейти к последнему сообщению

В этой теме нет новых непрочитанных сообщений. Скачать торрент Проверен (Blues) Miles Davis, John Lee Hooker - The Hot Spot OST - 1990 [APE (image + .cue)]

в форуме Blues (Texas, Chicago, Modern and Others), Размер: 185.74 МБ, Здоровье: 0%

Anonymous

0
0|0

2
0

15 окт 2016, 22:28

Anonymous Перейти к последнему сообщению

В этой теме нет новых непрочитанных сообщений. Скачать торрент Проверен [SACD-R][OF] Various Artists - The Hot Spot: Original Motion Picture Soundtrack - 1990/2009 (Blues, Jazz)

в форуме Hi-Res stereo (Джаз и Блюз), Размер: 1.64 ГБ, Здоровье: 100%

Anonymous

0
6|2

11
1

27 авг 2016, 13:17

Anonymous Перейти к последнему сообщению

В этой теме нет новых непрочитанных сообщений. Скачать торрент Проверен Captain Beefheart & The Magic Band - The Spotlight Kid & Clear Spot - 1972 [1990, psychedelic jazz / FLAC (image+.cue), lossless]

в форуме Progressive & Art-Rock, Размер: 388.83 МБ, Здоровье: 0%

Anonymous

0
0|0

2
0

30 авг 2016, 22:35

Anonymous Перейти к последнему сообщению

В этой теме нет новых непрочитанных сообщений. Скачать торрент Проверен Мужчины за работой / Men at Work (1990) BDRip 720p | P, A

в форуме 720p | 1080p, Размер: 3.64 ГБ, Здоровье: 100%

Гость

0
161|31

132
262

17 окт 2015, 18:26

Гость Перейти к последнему сообщению



Сейчас этот форум просматривают: нет зарегистрированных пользователей и гости: 3


Вы не можете начинать темы
Вы не можете отвечать на сообщения
Вы не можете редактировать свои сообщения
Вы не можете удалять свои сообщения
Вы не можете добавлять вложения

Перейти:  

!ВНИМАНИЕ!
 Ресурс не предоставляет электронные версии произведений, а занимается лишь коллекционированием и каталогизацией ссылок, присылаемых и публикуемых на форуме нашими читателями. Если вы являетесь правообладателем какого-либо представленного материала и не желаете чтобы ссылка на него находилась в нашем каталоге, свяжитесь с нами и мы незамедлительно удалим её. Файлы для обмена на трекере предоставлены пользователями сайта, и администрация не несёт ответственности за их содержание. Просьба не заливать файлы, защищенные авторскими правами, а также файлы нелегального содержания!