На всех торрентах на трекере установлена скидка на скачивание в размере 100 процентов(а).
 Возможность скачивания торрента НЕ зависит от ограничений при низком ратио, низком аплоаде, требуемом ратио или требуемом аплоаде.


Начать новую тему Ответить на тему
Статистика раздачи
Размер: 7.2 ГБ | Добавлен: 20 окт 2013, 14:23 | Скачали: 22
Сидеров: 7  [0 байт/сек]    Личеров: 1  [0 байт/сек]
Пред. тема | След. тема 

Автор
Сообщение

СообщениеДобавлено: 20 окт 2013, 14:23 

Название: Омен
Оригинальное название: The Omen
Год выхода: 2006
Жанр: ужасы, мистика, триллер
Режиссер: Джон Мур

В ролях: Лив Шрайбер, Джулия Стайлз, Симус Дэви-Фицпатрик, Эми Хак, Дэвид Тьюлис, Педжа Бьелак, Карло Сабатини, Бохумил Сварч, Джованни Ломбардо Радице, Томас Вулер, Рафаэль Саллас, Маршалл Капп, Винс Валитути, Клара Лоу, Лори Таллак, Мианна Баринг, Харви Стивенс, Кэмми Дарвейш, Регги Остин, Тоня Грейвз, Пит Постлтуэйт

О фильме:
Американский посол Роберт Торн и его любимая жена ожидают ребёнка. Но когда она рожает мёртвого младенца, таинственный итальянский священник убеждает дипломата тайно усыновить другого младенца из больницы. Торн последовал совету священника, не сказав жене об их потере. После пяти коротких счастливых лет вместе, начинают происходить странные вещи: кончает жизнь самоубийством их домохозяйка... Отец Бреннан, предупредивший Роберта о странном поведении ребенка, пробует убедить посла Торна, что мальчик является воплощением Антихриста.


Страна: США
Продолжительность: 01:49:50
Перевод: Дублированный, авторский одноголосый (Немахов)


Кодек: h.264
Качество: BDRip 720p
Видео: 1280x692, 5612 Кбит/сек, 23,976 кадра/сек
Звук:
Русский; DTS; 6 каналов; 48 кГц; 775 Кбит/сек; дубляж
Русский; DTS; 6 каналов; 48 кГц; 1509 Кбит/сек; авторский одноголосый (Немахов)
Английский; DTS; 6 каналов; 48 кГц; 1509 Кбит/сек; оригинальная дорожка
Субтитры: русские (SRT)


Общее
Полное имя : The Omen (2006) 720p.mkv
Формат : Matroska
Версия формата : Version 2
Размер файла : 7,20 Гбайт
Продолжительность : 1 ч. 49 м.
Общий поток : 9388 Кбит/сек
Дата кодирования : UTC 2013-01-08 10:03:05
Программа кодирования : mkvmerge v5.8.0 ('No Sleep / Pillow') built on Sep 2 2012 15:37:04
Библиотека кодирования : libebml v1.2.3 + libmatroska v1.3.0

Видео
Идентификатор : 1
Формат : AVC
Формат/Информация : Advanced Video Codec
Профиль формата : High@L4.1
Параметр CABAC формата : Да
Параметр ReFrames формата : 9 кадров
Идентификатор кодека : V_MPEG4/ISO/AVC
Продолжительность : 1 ч. 49 м.
Битрейт : 5612 Кбит/сек
Ширина : 1280 пикселей
Высота : 692 пикселя
Соотношение сторон : 1,85:1
Режим частоты кадров : Постоянный
Частота кадров : 23,976 кадра/сек
Цветовое пространство : YUV
Субдискретизация насыщенности : 4:2:0
Битовая глубина : 8 бит
Тип развёртки : Прогрессивная
Бит/(Пиксели*Кадры) : 0.264
Размер потока : 4,17 Гбайт (58%)
Библиотека кодирования : x264 core 105 r1732 2b04482
Настройки программы : cabac=1 / ref=9 / deblock=1:-1:-1 / analyse=0x3:0x133 / me=umh / subme=10 / psy=1 / psy_rd=1.00:0.00 / mixed_ref=1 / me_range=64 / chroma_me=1 / trellis=2 / 8x8dct=1 / cqm=0 / deadzone=21,11 / fast_pskip=0 / chroma_qp_offset=-2 / threads=3 / sliced_threads=0 / nr=0 / decimate=0 / interlaced=0 / constrained_intra=0 / bframes=6 / b_pyramid=2 / b_adapt=2 / b_bias=0 / direct=3 / weightb=1 / open_gop=0 / weightp=2 / keyint=250 / keyint_min=23 / scenecut=40 / intra_refresh=0 / rc_lookahead=60 / rc=2pass / mbtree=1 / bitrate=5612 / ratetol=1.0 / qcomp=0.60 / qpmin=10 / qpmax=51 / qpstep=4 / cplxblur=20.0 / qblur=0.5 / vbv_maxrate=50000 / vbv_bufsize=50000 / ip_ratio=1.50 / aq=1:1.00 / nal_hrd=none
Язык : English
Default : Нет
Forced : Нет

Аудио #1
Идентификатор : 2
Формат : DTS
Формат/Информация : Digital Theater Systems
Режим : 16
Параметр Endianness формата : Big
Идентификатор кодека : A_DTS
Продолжительность : 1 ч. 49 м.
Вид битрейта : Постоянный
Битрейт : 755 Кбит/сек
Каналы : 6 каналов
Расположение каналов : Front: L C R, Side: L R, LFE
Частота : 48,0 КГц
Битовая глубина : 24 бит
Метод сжатия : С потерями
Размер потока : 593 Мбайт (8%)
Заголовок : Дубляж
Язык : Russian
Default : Да
Forced : Нет

Аудио #2
Идентификатор : 3
Формат : DTS
Формат/Информация : Digital Theater Systems
Режим : 16
Параметр Endianness формата : Big
Идентификатор кодека : A_DTS
Продолжительность : 1 ч. 49 м.
Вид битрейта : Постоянный
Битрейт : 1509 Кбит/сек
Каналы : 6 каналов
Расположение каналов : Front: L C R, Side: L R, LFE
Частота : 48,0 КГц
Битовая глубина : 24 бит
Метод сжатия : С потерями
Размер потока : 1,16 Гбайт (16%)
Заголовок : Авторский одноголосый (Немахов)
Язык : Russian
Default : Нет
Forced : Нет

Аудио #3
Идентификатор : 4
Формат : DTS
Формат/Информация : Digital Theater Systems
Режим : 16
Параметр Endianness формата : Big
Идентификатор кодека : A_DTS
Продолжительность : 1 ч. 49 м.
Вид битрейта : Постоянный
Битрейт : 1509 Кбит/сек
Каналы : 6 каналов
Расположение каналов : Front: L C R, Side: L R, LFE
Частота : 48,0 КГц
Битовая глубина : 24 бит
Метод сжатия : С потерями
Размер потока : 1,16 Гбайт (16%)
Заголовок : Английский
Язык : English
Default : Нет
Forced : Нет

Текст
Идентификатор : 5
Формат : UTF-8
Идентификатор кодека : S_TEXT/UTF8
Идентификатор кодека/Информация : UTF-8 Plain Text
Язык : Russian
Default : Нет
Forced : Нет

Релиз от: HDChina
загрузка...
Правила, инструкции, FAQ!!!
Торрент  Добавлен [20 окт 2013, 14:23] Скачать торрент
Скачать торрент
[ Размер 36.41 КБ / Просмотров 10 ]

Статус  
 
Размер  7.2 ГБ
Приватный: Нет (DHT включён)
.torrent скачан  22
Как залить торрент? | Как скачать Torrent? | Как смотреть и слушать онлайн?  


     Отправить личное сообщение
   
Страница 1 из 1
Показать сообщения за:  Поле сортировки  
Начать новую тему Ответить на тему

   Похожие торренты   Автор   Ответы   Просмотры   Последнее сообщение 
В этой теме нет новых непрочитанных сообщений. Скачать торрент Проверен Омен: Трилогия / The Omen: Trilogy (1976-1981) BDRip 720p

в форуме Трилогии, Размер: 21.12 ГБ, Здоровье: 100%

Anonymous

0
137|120

138
45

26 окт 2014, 08:34

Anonymous Перейти к последнему сообщению

В этой теме нет новых непрочитанных сообщений. Скачать торрент Проверен (Heavy Metal / Rock) Omen - Teeth Of The Hydra /The Best of Omen/ - 1989, FLAC (image+.cue), lossless

в форуме Heavy, Power, Progressive (Metal), Размер: 304.55 МБ, Здоровье: 0%

Anonymous

0
0|0

0
0

11 окт 2016, 00:54

Anonymous Перейти к последнему сообщению

В этой теме нет новых непрочитанных сообщений. Скачать торрент Проверен (Heavy, Power Metal) Omen /Hungary/ - Nomen Est Omen (2CD) - 2012, FLAC (tracks+.cue), lossless

в форуме Heavy, Power, Progressive (Metal), Размер: 779.94 МБ, Здоровье: 0%

Anonymous

0
0|0

0
0

11 окт 2016, 18:14

Anonymous Перейти к последнему сообщению

В этой теме нет новых непрочитанных сообщений. Скачать торрент Проверен 300 спартанцев / 300 (2006) BDRip 720p | D

в форуме 720p | 1080p, Размер: 5.11 ГБ, Здоровье: 100%

Anonymous

0
23|0

37
238

19 май 2014, 13:03

Anonymous Перейти к последнему сообщению

В этой теме нет новых непрочитанных сообщений. Скачать торрент Заброшенный дом / The Abandoned (2006) BDRip 720p

в форуме 720p | 1080p, Размер: 4.71 ГБ, Здоровье: 100%

Anonymous

0
15|1

18
0

20 дек 2013, 12:39

Anonymous Перейти к последнему сообщению



Сейчас этот форум просматривают: нет зарегистрированных пользователей и гости: 1


Вы не можете начинать темы
Вы не можете отвечать на сообщения
Вы не можете редактировать свои сообщения
Вы не можете удалять свои сообщения
Вы не можете добавлять вложения

Перейти:  

!ВНИМАНИЕ!
 Ресурс не предоставляет электронные версии произведений, а занимается лишь коллекционированием и каталогизацией ссылок, присылаемых и публикуемых на форуме нашими читателями. Если вы являетесь правообладателем какого-либо представленного материала и не желаете чтобы ссылка на него находилась в нашем каталоге, свяжитесь с нами и мы незамедлительно удалим её. Файлы для обмена на трекере предоставлены пользователями сайта, и администрация не несёт ответственности за их содержание. Просьба не заливать файлы, защищенные авторскими правами, а также файлы нелегального содержания!