На всех торрентах на трекере установлена скидка на скачивание в размере 100 процентов(а).
 Возможность скачивания торрента НЕ зависит от ограничений при низком ратио, низком аплоаде, требуемом ратио или требуемом аплоаде.


Начать новую тему Ответить на тему
Статистика раздачи
Размер: 7.95 ГБ | Добавлен: 19 окт 2013, 15:17 | Скачали: 0
Сидеров: 0  [0 байт/сек]    Личеров: 0  [0 байт/сек]
Пред. тема | След. тема 

Автор
Сообщение

СообщениеДобавлено: 19 окт 2013, 15:17 

Легенда Зорро

The Legend of Zorro

«This Fall, adventure begins with a Z»
Год выпуска: 2005
Страна: США
Жанр: боевик, приключения, вестерн
Продолжительность: 02:10:27
Перевод: Профессиональный (дублированный)
Субтитры: Russian (UTF-8), English (UTF-8)

Режиссер: Мартин Кэмпбелл


В ролях: Антонио Бандерас / Antonio Banderas (Zorro/Alejandro), Кэтрин Зета-Джонс / Catherine Zeta-Jones (Elena), Адриан Алонсо / Adrian Alonso (Joaquin), Руфус Сьюэлл / Rufus Sewell (Armand), Ник Чинланд / Nick Chinlund (Jacob McGivens), Хулио Оскар Мечосо / Julio Oscar Mechoso (Frey Felipe), Майкл Эмерсон / Michael Emerson (Harrigan), Шулер Хенсли / Shuler Hensley (Pike), Лео Бёрместер / Leo Burmester (Col. Beauregard), Тони Амендола / Tony Amendola (Father Quintero)

Описание: Спустя 10 лет Алехандро обещает Елене и сыну Хоакину расстаться с маской и вечными приключениями, но воплотить эти планы в жизнь не удается, поскольку зреет новый заговор, бороться с которым может лишь всесильный Зорро…



Рейтинг MPAA: Рекомендуется присутствие родителей
Рейтинг ВКИП: для детей старше 16 лет


Качество: BDRip 1080p
Формат: MKV
Видео кодек: H.264 (AVC)
Аудио кодеk: AC3
Видео: 1920x816 (2.35:1), 23.976 fps, AVC, 7635 Kbps
Аудио: Аудио #1: AC3, 640 Kbps, 48.0 KHz, 6 ch RUS Dub
Аудио #2: AC3, 448 Kbps, 48.0 KHz, 6 ch Eng



x264 [info]: frame I:1430 Avg QP:16.31 size:178008
x264 [info]: frame P:51527 Avg QP:18.31 size: 65595
x264 [info]: frame B:134723 Avg QP:19.05 size: 28460
************************************************************
General
Unique ID : 201791674041439498960045252908981141755 (0x97CFA9AA6802D18399527959761FC0FB)
Complete name : The.Legend.of.Zorro.2005.1080p.F-HD.mkv
Format : Matroska
Format version : Version 4 / Version 2
File size : 7.95 GiB
Duration : 2h 10mn
Overall bit rate : 8 723 Kbps
Encoded date : UTC 2013-10-19 05:40:31
Writing application : mkvmerge v6.4.1 ('Omega Point') built on Sep 16 2013 22:05:10
Writing library : libebml v1.3.0 + libmatroska v1.4.1

Video
ID : 1
Format : AVC
Format/Info : Advanced Video Codec
Format profile : High@L4.1
Format settings, CABAC : Yes
Format settings, ReFrames : 5 frames
Codec ID : V_MPEG4/ISO/AVC
Duration : 2h 10mn
Bit rate : 7 635 Kbps
Width : 1 920 pixels
Height : 816 pixels
Display aspect ratio : 2.35:1
Frame rate mode : Constant
Frame rate : 23.976 fps
Color space : YUV
Chroma subsampling : 4:2:0
Bit depth : 8 bits
Scan type : Progressive
Bits/(Pixel*Frame) : 0.203
Stream size : 6.80 GiB (86%)
Writing library : x264 core 138 r2358 9e941d1
Encoding settings : cabac=1 / ref=5 / deblock=1:-3:-3 / analyse=0x3:0x113 / me=umh / subme=10 / psy=1 / psy_rd=1.00:0.05 / mixed_ref=1 / me_range=64 / chroma_me=1 / trellis=2 / 8x8dct=1 / cqm=0 / deadzone=21,11 / fast_pskip=0 / chroma_qp_offset=-3 / threads=6 / lookahead_threads=1 / sliced_threads=0 / nr=0 / decimate=1 / interlaced=0 / bluray_compat=0 / constrained_intra=0 / bframes=9 / b_pyramid=2 / b_adapt=2 / b_bias=0 / direct=3 / weightb=1 / open_gop=0 / weightp=2 / keyint=240 / keyint_min=23 / scenecut=40 / intra_refresh=0 / rc_lookahead=120 / rc=2pass / mbtree=0 / bitrate=7635 / ratetol=1.0 / qcomp=0.65 / qpmin=0 / qpmax=69 / qpstep=4 / cplxblur=20.0 / qblur=0.5 / vbv_maxrate=50000 / vbv_bufsize=62500 / nal_hrd=none / ip_ratio=1.30 / pb_ratio=1.20 / aq=1:0.80
Language : English
Default : Yes
Forced : No
Color primaries : BT.709
Transfer characteristics : BT.709
Matrix coefficients : BT.709

Audio #1
ID : 2
Format : AC-3
Format/Info : Audio Coding 3
Mode extension : CM (complete main)
Format settings, Endianness : Big
Codec ID : A_AC3
Duration : 2h 10mn
Bit rate mode : Constant
Bit rate : 640 Kbps
Channel(s) : 6 channels
Channel positions : Front: L C R, Side: L R, LFE
Sampling rate : 48.0 KHz
Bit depth : 16 bits
Compression mode : Lossy
Stream size : 597 MiB (7%)
Language : Russian
Default : Yes
Forced : No

Audio #2
ID : 3
Format : AC-3
Format/Info : Audio Coding 3
Mode extension : CM (complete main)
Format settings, Endianness : Big
Codec ID : A_AC3
Duration : 2h 10mn
Bit rate mode : Constant
Bit rate : 448 Kbps
Channel(s) : 6 channels
Channel positions : Front: L C R, Side: L R, LFE
Sampling rate : 48.0 KHz
Bit depth : 16 bits
Compression mode : Lossy
Stream size : 418 MiB (5%)
Language : English
Default : No
Forced : No

Text #1
ID : 4
Format : UTF-8
Codec ID : S_TEXT/UTF8
Codec ID/Info : UTF-8 Plain Text
Language : Russian
Default : No
Forced : No

Text #2
ID : 5
Format : UTF-8
Codec ID : S_TEXT/UTF8
Codec ID/Info : UTF-8 Plain Text
Language : English
Default : No
Forced : No

Menu
00:00:00.000 : en:00:00:00.000
00:06:37.647 : en:00:06:37.647
00:13:19.674 : en:00:13:19.674
00:22:59.420 : en:00:22:59.420
00:29:41.613 : en:00:29:41.613
00:38:02.864 : en:00:38:02.864
00:45:24.972 : en:00:45:24.972
00:54:12.082 : en:00:54:12.082
01:02:08.725 : en:01:02:08.725
01:10:41.988 : en:01:10:41.988
01:19:41.026 : en:01:19:41.026
01:25:30.792 : en:01:25:30.792
01:30:43.605 : en:01:30:43.605
01:36:21.526 : en:01:36:21.526
01:43:26.534 : en:01:43:26.534
01:49:48.582 : en:01:49:48.582






Релиз от:
загрузка...
Правила, инструкции, FAQ!!!
Торрент  Добавлен [19 окт 2013, 15:17] Скачать торрент
Скачать торрент
[ Размер 40.23 КБ / Просмотров 11 ]

Статус  
 
Размер  7.95 ГБ
Приватный: Нет (DHT включён)
.torrent скачан  0
Как залить торрент? | Как скачать Torrent? | Как смотреть и слушать онлайн?  


     Отправить личное сообщение
   
Страница 1 из 1
Показать сообщения за:  Поле сортировки  
Начать новую тему Ответить на тему

   Похожие торренты   Автор   Ответы   Просмотры   Последнее сообщение 
В этой теме нет новых непрочитанных сообщений. Скачать торрент Легенда Зорро / The Legend of Zorro (Мартин Кэмпбелл) [2005 г., Боевик, Вестерн, Приключения, DVDRip]

в форуме Боевики, Размер: 771.2 МБ, Здоровье: 100%

Anonymous

0
1|0

65
0

25 апр 2014, 08:52

Anonymous Перейти к последнему сообщению

В этой теме нет новых непрочитанных сообщений. Скачать торрент Проверен Маска Зорро / The Mask of Zorro (1998) BDRip 1080p | D | Лицензия

в форуме 720p | 1080p, Размер: 11.55 ГБ, Здоровье: 100%

Гость

0
21|17

94
10

15 янв 2016, 23:04

Гость Перейти к последнему сообщению

В этой теме нет новых непрочитанных сообщений. Скачать торрент Проверен Легенда о Костоломе / Легенда о Костяном Драконе / Легенда о Костобое / Legend of the Boneknapper Dragon (2010) BDRip

в форуме Зарубежные мультфильмы, Размер: 451.83 МБ, Здоровье: 100%

Anonymous

0
23|2

246
32

06 ноя 2014, 17:19

Anonymous Перейти к последнему сообщению

В этой теме нет новых непрочитанных сообщений. Скачать торрент Проверен [iPad] Зорро / Zorro (Дуччо Тессари / Duccio Tessari) [1975, приключения, комедия, BDRip, 576р] DUB, MVO, Original

в форуме Фильмы для iPod, iPhone, iPad, Размер: 2.8 ГБ, Здоровье: 100%

Anonymous

0
5|2

18
1

11 май 2015, 01:37

Anonymous Перейти к последнему сообщению

В этой теме нет новых непрочитанных сообщений. Скачать торрент Проверен Тарзан. Легенда / The Legend of Tarzan (2016) BDRip 1080p | iTunes

в форуме 720p | 1080p, Размер: 7.46 ГБ, Здоровье: 100%

Гость

0
682|203

42
1047

29 сен 2016, 20:50

Гость Перейти к последнему сообщению



Сейчас этот форум просматривают: нет зарегистрированных пользователей и гости: 4


Вы не можете начинать темы
Вы не можете отвечать на сообщения
Вы не можете редактировать свои сообщения
Вы не можете удалять свои сообщения
Вы не можете добавлять вложения

Перейти:  

!ВНИМАНИЕ!
 Ресурс не предоставляет электронные версии произведений, а занимается лишь коллекционированием и каталогизацией ссылок, присылаемых и публикуемых на форуме нашими читателями. Если вы являетесь правообладателем какого-либо представленного материала и не желаете чтобы ссылка на него находилась в нашем каталоге, свяжитесь с нами и мы незамедлительно удалим её. Файлы для обмена на трекере предоставлены пользователями сайта, и администрация не несёт ответственности за их содержание. Просьба не заливать файлы, защищенные авторскими правами, а также файлы нелегального содержания!