На всех торрентах на трекере установлена скидка на скачивание в размере 100 процентов(а).
 Возможность скачивания торрента НЕ зависит от ограничений при низком ратио, низком аплоаде, требуемом ратио или требуемом аплоаде.


Начать новую тему Ответить на тему
Статистика раздачи
Размер: 2.17 ГБ | Добавлен: 19 окт 2013, 15:05 | Скачали: 0
Сидеров: 0  [0 байт/сек]    Личеров: 0  [0 байт/сек]
Пред. тема | След. тема 

Автор
Сообщение

СообщениеДобавлено: 19 окт 2013, 15:05 

Название: Фанатка
Оригинальное название: Swimfan
Год выхода: 2002
Жанр: Триллер, драма
Режиссер: Джон Полсон

В ролях: Джесси Брэдфорд, Эрика Кристенсен, Шири Эпплби, Кейт Бёртон, Клейн Кроуфорд, Джейсон Риттер, Киа Гудвин, Дэн Хедайя, Майкл Хиггинс, Ник Сэндоу, Джеймс ДеБелло, Питер Хэрман, Патриция Рэй, Триш МакГеттрик

О фильме:
Бен Кронин — баловень судьбы, предмет восхищения многочисленных друзей и поклонников. У него потрясающая подружка и неплохие перспективы попасть в университетскую спортивную команду. Не думайте, что все это дается ему легко — каждый день Бен проводит в бассейне много часов в непрерывных тренировках, работает в местной больнице и с трудом находит время, чтобы провести его со своей любимой Эми. Внезапно жизнь Бена переворачивается вверх тормашками. В город приезжает «новая девчонка» — Мэдисон Белл, и сразу кладет глаз на симпатичного парня. Их первые встречи довольно невинны, но она хочет большего… Соблазнение Бена — лишь начало; она становится его самой верной фанаткой и одновременно — его ночным кошмаром, когда ее навязчивость переходит в ярость, предательство и убийство…



Страна: США
Студия: 20th Century Fox Film Corporation, Forrest Films, Cobalt Media Group, Further Films, GreeneStreet Films Inc.
Продолжительность: 01:24:55
Перевод: Дублированный, профессиональный многоголосый


Кодек: MPEG-4 AVC
Качество: WEB-DLRip (AVC)
Видео: 2307 Кбит/с, 1024x432
Звук: Русский, английский (AC3, 6 ch, 448 Кбит/с)
Субтитры: Русские, английские

Рип от: StarbirS

x264 [info]: frame I:1274 Avg QP:13.71 size: 63829
x264 [info]: frame P:50924 Avg QP:16.49 size: 21388
x264 [info]: frame B:69966 Avg QP:19.42 size: 4266
x264 [info]: consecutive B-frames: 14.3% 32.1% 8.4% 15.9% 23.6% 4.9% 0.1% 0.0% 0.7%
Формат : Matroska
Версия формата : Version 4 / Version 2
Размер файла : 2,17 Гбайт
Продолжительность : 1 ч. 24 м.
Общий поток : 3652 Кбит/сек
Название фильма : Swimfan (2002)
Дата кодирования : UTC 2013-10-19 05:16:43
Программа кодирования : mkvmerge v6.3.0 ('You can't stop me!') built on Jun 28 2013 20:09:41
Библиотека кодирования : libebml v1.3.0 + libmatroska v1.4.0

Видео
Идентификатор : 1
Формат : AVC
Формат/Информация : Advanced Video Codec
Профиль формата : High@L4.1
Параметр CABAC формата : Да
Параметр ReFrames формата : 9 кадров
Идентификатор кодека : V_MPEG4/ISO/AVC
Продолжительность : 1 ч. 24 м.
Битрейт : 2307 Кбит/сек
Ширина : 1024 пикселя
Высота : 432 пикселя
Соотношение сторон : 2,40:1
Режим частоты кадров : Постоянный
Частота кадров : 23,976 кадра/сек
Цветовое пространство : YUV
Субдискретизация насыщенности : 4:2:0
Битовая глубина : 8 бит
Тип развёртки : Прогрессивная
Бит/(Пиксели*Кадры) : 0.218
Размер потока : 1,33 Гбайт (61%)
Библиотека кодирования : x264 core 130 r2273 b3065e6
Настройки программы : cabac=1 / ref=9 / deblock=1:-3:-3 / analyse=0x3:0x133 / me=umh / subme=10 / psy=1 / psy_rd=1.00:0.15 / mixed_ref=1 / me_range=32 / chroma_me=1 / trellis=2 / 8x8dct=1 / cqm=0 / deadzone=21,11 / fast_pskip=0 / chroma_qp_offset=-3 / threads=6 / lookahead_threads=1 / sliced_threads=0 / nr=0 / decimate=1 / interlaced=0 / bluray_compat=0 / constrained_intra=0 / bframes=8 / b_pyramid=2 / b_adapt=1 / b_bias=0 / direct=3 / weightb=1 / open_gop=1 / weightp=2 / keyint=240 / keyint_min=23 / scenecut=40 / intra_refresh=0 / rc_lookahead=50 / rc=2pass / mbtree=1 / bitrate=2307 / ratetol=1.0 / qcomp=0.60 / qpmin=0 / qpmax=69 / qpstep=4 / cplxblur=20.0 / qblur=0.5 / ip_ratio=1.40 / aq=1:1.00
Язык : English
Default : Да
Forced : Нет

Аудио #1
Идентификатор : 2
Формат : AC-3
Формат/Информация : Audio Coding 3
Расширение режима : CM (complete main)
Параметр Endianness формата : Big
Идентификатор кодека : A_AC3
Продолжительность : 1 ч. 24 м.
Вид битрейта : Постоянный
Битрейт : 448 Кбит/сек
Каналы : 6 каналов
Расположение каналов : Front: L C R, Side: L R, LFE
Частота : 48,0 КГц
Битовая глубина : 16 бит
Метод сжатия : С потерями
Размер потока : 272 Мбайт (12%)
Заголовок : Дублированный (МОСФИЛЬМ-мастер - DVD9 R5 «West Video», 2003)
Язык : Russian
Default : Да
Forced : Нет

Аудио #2
Идентификатор : 3
Формат : AC-3
Формат/Информация : Audio Coding 3
Расширение режима : CM (complete main)
Параметр Endianness формата : Big
Идентификатор кодека : A_AC3
Продолжительность : 1 ч. 24 м.
Вид битрейта : Постоянный
Битрейт : 448 Кбит/сек
Каналы : 6 каналов
Расположение каналов : Front: L C R, Side: L R, LFE
Частота : 48,0 КГц
Битовая глубина : 16 бит
Метод сжатия : С потерями
Размер потока : 272 Мбайт (12%)
Заголовок : Профессиональный многоголосый (DVD5 NTSC)
Язык : Russian
Default : Нет
Forced : Нет

Аудио #3
Идентификатор : 4
Формат : AC-3
Формат/Информация : Audio Coding 3
Расширение режима : CM (complete main)
Параметр Endianness формата : Big
Идентификатор кодека : A_AC3
Продолжительность : 1 ч. 24 м.
Вид битрейта : Постоянный
Битрейт : 448 Кбит/сек
Каналы : 6 каналов
Расположение каналов : Front: L C R, Side: L R, LFE
Частота : 48,0 КГц
Битовая глубина : 16 бит
Метод сжатия : С потерями
Размер потока : 272 Мбайт (12%)
Заголовок : Оригинал (DVD5 NTSC)
Язык : English
Default : Нет
Forced : Нет

Текст #1
Идентификатор : 5
Формат : UTF-8
Идентификатор кодека : S_TEXT/UTF8
Идентификатор кодека/Информация : UTF-8 Plain Text
Заголовок : Русские
Язык : Russian
Default : Нет
Forced : Нет

Текст #2
Идентификатор : 6
Формат : UTF-8
Идентификатор кодека : S_TEXT/UTF8
Идентификатор кодека/Информация : UTF-8 Plain Text
Заголовок : Английские
Язык : English
Default : Нет
Forced : Нет

Меню
00:00:00.000 : en:Main Titles
00:03:25.000 : en:Ben
00:06:50.000 : en:Madison
00:13:29.000 : en:Madison's Music
00:19:18.000 : en:Swimming
00:26:33.000 : en:A Party
00:30:12.000 : en:Swimfan85
00:32:51.000 : en:Mom's Birthday
00:37:25.000 : en:More E-mail
00:39:11.000 : en:Making Friends
00:46:12.000 : en:Amy Finds Out
00:49:53.000 : en:The Swim Meet
00:53:11.000 : en:Talking it Over
00:55:47.000 : en:The Death of a Friend
00:58:27.000 : en:Searching for Evidence
01:01:58.000 : en:Jake Donnelly
01:07:54.000 : en:The Set-Up
01:12:20.000 : en:Amy Gets a Visitor
01:16:29.000 : en:At the Pool
01:20:48.000 : en:End Titles




Сохранены оригинальные чаптеры
загрузка...
Правила, инструкции, FAQ!!!
Торрент  Добавлен [19 окт 2013, 15:05] Скачать торрент
Скачать торрент
[ Размер 11.25 КБ / Просмотров 9 ]

Статус  
 
Размер  2.17 ГБ
Приватный: Нет (DHT включён)
.torrent скачан  0
Как залить торрент? | Как скачать Torrent? | Как смотреть и слушать онлайн?  


     Отправить личное сообщение
   
Страница 1 из 1
Показать сообщения за:  Поле сортировки  
Начать новую тему Ответить на тему

   Похожие торренты   Автор   Ответы   Просмотры   Последнее сообщение 
В этой теме нет новых непрочитанных сообщений. Скачать торрент Проверен Прослушка / The Wire [S01-05] (2002-2008) WEB-DLRip | Fox Crime

в форуме Зарубежные сериалы, Размер: 39.53 ГБ, Здоровье: 28%

Anonymous

0
65|229

310
101

20 июн 2015, 18:08

Anonymous Перейти к последнему сообщению

В этой теме нет новых непрочитанных сообщений. Скачать торрент Проверен Тяжелые деньги / Трудные деньги / Hard Cash / Run for the Money (2002) WEB-DLRip

в форуме Боевики, Размер: 1.46 ГБ, Здоровье: 0%

Anonymous

0
0|0

41
0

25 сен 2014, 11:37

Anonymous Перейти к последнему сообщению

В этой теме нет новых непрочитанных сообщений. Скачать торрент Проверен (Шансон) Александр Дюмин - 12.09.2002 - Концерт в казино Премьер - 2002, MP3, 320 kbps

в форуме Шансон|Авторская песня, Размер: 204.51 МБ, Здоровье: 0%

Anonymous

0
0|0

0
0

05 ноя 2016, 18:05

Anonymous Перейти к последнему сообщению

В этой теме нет новых непрочитанных сообщений. Скачать торрент Проверен (Blues) Rick Derringer Free Ride 2002 - 2002, Flac (image + .cue)

в форуме Blues (Texas, Chicago, Modern and Others), Размер: 371.87 МБ, Здоровье: 0%

Anonymous

0
0|0

1
0

16 окт 2016, 15:31

Anonymous Перейти к последнему сообщению

В этой теме нет новых непрочитанных сообщений. Скачать торрент Проверен (Rock) Bon Jovi - Hammerstein Ballroom, New York, USA 23.08.2002 (DVD) - 2002 (DVDRip), MP3, 256 kbps

в форуме AOR (Melodic Hard Rock, Arena rock), Размер: 77.25 МБ, Здоровье: 0%

Anonymous

0
0|0

2
0

08 окт 2016, 01:46

Anonymous Перейти к последнему сообщению



Сейчас этот форум просматривают: нет зарегистрированных пользователей и гости: 2


Вы не можете начинать темы
Вы не можете отвечать на сообщения
Вы не можете редактировать свои сообщения
Вы не можете удалять свои сообщения
Вы не можете добавлять вложения

Перейти:  

!ВНИМАНИЕ!
 Ресурс не предоставляет электронные версии произведений, а занимается лишь коллекционированием и каталогизацией ссылок, присылаемых и публикуемых на форуме нашими читателями. Если вы являетесь правообладателем какого-либо представленного материала и не желаете чтобы ссылка на него находилась в нашем каталоге, свяжитесь с нами и мы незамедлительно удалим её. Файлы для обмена на трекере предоставлены пользователями сайта, и администрация не несёт ответственности за их содержание. Просьба не заливать файлы, защищенные авторскими правами, а также файлы нелегального содержания!