На всех торрентах на трекере установлена скидка на скачивание в размере 100 процентов(а).
 Возможность скачивания торрента НЕ зависит от ограничений при низком ратио, низком аплоаде, требуемом ратио или требуемом аплоаде.


Начать новую тему Ответить на тему
Статистика раздачи
Размер: 4.38 ГБ | Добавлен: 18 окт 2013, 21:46 | Скачали: 1
Сидеров: 14  [0 байт/сек]    Личеров: 9  [0 байт/сек]
Пред. тема | След. тема 

Автор
Сообщение

СообщениеДобавлено: 18 окт 2013, 21:46 

Название: Ганнибал
Оригинальное название: Hannibal
Год выхода: 2001
Жанр: Триллер, криминал, детектив
Режиссер: Ридли Скотт

В ролях: Энтони Хопкинс, Джулианна Мур, Гари Олдман, Рэй Лиотта, Фрэнки Фэйзон, Джанкарло Джаннини, Франческа Нери, Желько Иванек, Хазелль Гудман, Дэвид Эндрюс...

О фильме:
По прошествии десяти лет тревожного молчания гениальный Ганнибал Лектер пишет письмо агенту ФБР Кларисе Старлинг, предлагая ей возобновить их прервавшуюся интеллектуальную дуэль.

С помощью миллионера Мейсона Верджера, ставшего очередной жертвой безумного доктора и мечтающего теперь скормить Лектера
стае прожорливых кабанов, Клариса выходит на след неуловимого маньяка и вскоре узнает о том, что за ним уже охотится инспектор флорентийской полиции Риналдо Пацци, рассчитывающий получить за его поимку щедрое вознаграждение.
Но примитивные ловушки — слабая преграда для голодного каннибала, который все ближе подбирается к Кларисе, чтобы пригласить свою фаворитку на самую страшную трапезу в ее жизни…



Страна: США
Продолжительность: 02:11:20
Перевод: Дубляж


Кодек: H264
Качество: BDRip 1080p
Видео: 1920x1040, 4311 Kbps, 23.976 fps
Звук: 48 kHz, AC3, 6c, 448 kbps
Субтитры: Русские, Английские

Семпл



Общее
Формат : Matroska
Версия формата : Version 2
Размер файла : 4,38 Гбайт
Продолжительность : 2 ч. 11 м.
Общий поток : 4774 Кбит/сек
Название фильма : Hannibal (2001) BDRip 1080p от Dimok
Дата кодирования : UTC 2012-02-29 05:15:16
Программа кодирования : mkvmerge v5.2.1 ('A Far Off Place') built on Jan 2 2012 23:21:10
Библиотека кодирования : libebml v1.2.3 + libmatroska v1.3.0

Видео
Идентификатор : 1
Формат : AVC
Формат/Информация : Advanced Video Codec
Профиль формата : High@L4.1
Параметр CABAC формата : Да
Параметр ReFrames формата : 4 кадра
Идентификатор кодека : V_MPEG4/ISO/AVC
Продолжительность : 2 ч. 11 м.
Битрейт : 4311 Кбит/сек
Ширина : 1920 пикселей
Высота : 1040 пикселей
Соотношение сторон : 16:9
Частота кадров : 23,976 кадра/сек
Цветовое пространство : YUV
Субдискретизация насыщенности : 4:2:0
Битовая глубина : 8 бит
Тип развёртки : Прогрессивная
Бит/(Пиксели*Кадры) : 0.090
Размер потока : 3,88 Гбайт (89%)
Библиотека кодирования : x264 core 92 r1510 33d382a
Настройки программы : cabac=1 / ref=4 / deblock=1:0:0 / analyse=0x3:0x133 / me=umh / subme=10 / psy=1 / psy_rd=1.00:0.10 / mixed_ref=1 / me_range=32 / chroma_me=1 / trellis=2 / 8x8dct=1 / cqm=0 / deadzone=21,11 / fast_pskip=0 / chroma_qp_offset=-3 / threads=6 / sliced_threads=0 / nr=0 / decimate=1 / interlaced=0 / constrained_intra=0 / bframes=6 / b_pyramid=2 / b_adapt=2 / b_bias=0 / direct=3 / wpredb=1 / wpredp=2 / keyint=240 / keyint_min=24 / scenecut=40 / intra_refresh=0 / rc_lookahead=60 / rc=2pass / mbtree=1 / bitrate=4311 / ratetol=1.0 / qcomp=0.60 / qpmin=10 / qpmax=51 / qpstep=4 / cplxblur=20.0 / qblur=0.5 / ip_ratio=1.40 / aq=1:1.00
Язык : English

Аудио
Идентификатор : 2
Формат : AC-3
Формат/Информация : Audio Coding 3
Расширение режима : CM (complete main)
Идентификатор кодека : A_AC3
Продолжительность : 2 ч. 11 м.
Вид битрейта : Постоянный
Битрейт : 448 Кбит/сек
Каналы : 6 каналов
Расположение каналов : Front: L C R, Side: L R, LFE
Частота : 48,0 КГц
Битовая глубина : 16 бит
Метод сжатия : С потерями
Размер потока : 421 Мбайт (9%)
Заголовок : Дубляж
Язык : Russian

Текст #1
Идентификатор : 3
Формат : PGS
Режим смешивания : zlib
Идентификатор кодека : S_HDMV/PGS
Идентификатор кодека/Информация : The same subtitle format used on BDs/HD-DVDs
Язык : Russian

Текст #2
Идентификатор : 4
Формат : PGS
Режим смешивания : zlib
Идентификатор кодека : S_HDMV/PGS
Идентификатор кодека/Информация : The same subtitle format used on BDs/HD-DVDs
Язык : English
загрузка...
Правила, инструкции, FAQ!!!
Торрент  Добавлен [18 окт 2013, 21:46] Скачать торрент
Скачать торрент
[ Размер 22.29 КБ / Просмотров 11 ]

Статус  
 
Размер  4.38 ГБ
Приватный: Нет (DHT включён)
.torrent скачан  1
Как залить торрент? | Как скачать Torrent? | Как смотреть и слушать онлайн?  


     Отправить личное сообщение
   
Страница 1 из 1
Показать сообщения за:  Поле сортировки  
Начать новую тему Ответить на тему

   Похожие торренты   Автор   Ответы   Просмотры   Последнее сообщение 
В этой теме нет новых непрочитанных сообщений. Скачать торрент Ганнибал Лектер: Коллекция / Hannibal Lecter Collection (1986-2007) BDRip 1080p

в форуме Пенталогии, Размер: 57.76 ГБ, Здоровье: 100%

Anonymous

0
8|8

954
67

20 фев 2014, 21:36

Anonymous Перейти к последнему сообщению

В этой теме нет новых непрочитанных сообщений. Скачать торрент Ганнибал / Hannibal (Ридли Скотт / Ridley Scott) [2001, США, триллер, HDRip] (ТВЦ)

в форуме Триллеры, Размер: 1.46 ГБ, Здоровье: 100%

Anonymous

0
12|4

41
0

26 апр 2014, 20:56

Anonymous Перейти к последнему сообщению

В этой теме нет новых непрочитанных сообщений. Скачать торрент Ганнибал: Восхождение / Hannibal Rising (Питер Веббер / Peter Webber) [2007, триллер, драма, BDRip-AVC] MVO + AVO (Рябов) + Original + Subs (Rus, Eng)

в форуме 720p | 1080p, Размер: 2.88 ГБ, Здоровье: 100%

Anonymous

0
23|7

65
1

07 фев 2014, 11:42

Anonymous Перейти к последнему сообщению

В этой теме нет новых непрочитанных сообщений. Скачать торрент Ганнибал (Hannibal) / (Сезоны 1-2, серии 1-21 из 26) BaibaKo (2014) [MP4|720x400] <WEB-DLRip [H.264]>

в форуме Видео для смартфонов и КПК, Размер: 12.43 ГБ, Здоровье: 0%

Anonymous

0
0|0

130
0

21 апр 2014, 22:28

Anonymous Перейти к последнему сообщению

В этой теме нет новых непрочитанных сообщений. Скачать торрент Ганнибал: Восхождение / Hannibal Rising (Питер Веббер / Peter Webber) [2007 г., ужасы, триллер, драма, HDRip] [UNRATED] Dub

в форуме Ужасы, Размер: 1.46 ГБ, Здоровье: 100%

Anonymous

0
21|7

91
0

16 фев 2014, 13:08

Anonymous Перейти к последнему сообщению



Сейчас этот форум просматривают: нет зарегистрированных пользователей и гости: 2


Вы не можете начинать темы
Вы не можете отвечать на сообщения
Вы не можете редактировать свои сообщения
Вы не можете удалять свои сообщения
Вы не можете добавлять вложения

Перейти:  

!ВНИМАНИЕ!
 Ресурс не предоставляет электронные версии произведений, а занимается лишь коллекционированием и каталогизацией ссылок, присылаемых и публикуемых на форуме нашими читателями. Если вы являетесь правообладателем какого-либо представленного материала и не желаете чтобы ссылка на него находилась в нашем каталоге, свяжитесь с нами и мы незамедлительно удалим её. Файлы для обмена на трекере предоставлены пользователями сайта, и администрация не несёт ответственности за их содержание. Просьба не заливать файлы, защищенные авторскими правами, а также файлы нелегального содержания!