На всех торрентах на трекере установлена скидка на скачивание в размере 100 процентов(а).
 Возможность скачивания торрента НЕ зависит от ограничений при низком ратио, низком аплоаде, требуемом ратио или требуемом аплоаде.


Начать новую тему Ответить на тему
Статистика раздачи
Размер: 4.37 ГБ | Добавлен: 18 окт 2013, 21:44 | Скачали: 77
Сидеров: 46  [0 байт/сек]    Личеров: 3  [0 байт/сек]
Пред. тема | След. тема 

Автор
Сообщение

СообщениеДобавлено: 18 окт 2013, 21:44 

Название: Ганнибал: Восхождение [Расширенная версия]
Оригинальное название: Hannibal Rising [Unrated]
Год выхода: 2007
Жанр: ужасы, триллер, драма
Режиссер: Питер Веббер

В ролях: Гаспар Улье, Риз Айфэнс, Ричард Брэйк, Ингеборга Дапкунайте, Аарон Томас, Helena Lia Tachovska, Ричард Лиф, Мишель Вэйд, Martin Hub, Joerg Stadler...

О фильме:
Первая глава жизни самого знаменитого и хитроумного маньяка всех времен… Ему было шесть, когда на его глазах жестоко убили его семью. В двадцать, бежав во Францию, а затем в США, он получил блестящее образование психиатра. Впереди его ждала жизнь, полная привилегий. Но жажда мести за убийство семьи только разгоралась в нем…



Страна: Франция, Великобритания, Италия, Чехия
Продолжительность: 02:10:27
Перевод: Профессиональный (многоголосый закадровый)


Кодек: H264
Качество: BDRip 1080p
Видео: 1920x816, 4341 Kbps, 23,976 fps
Звук: 48 kHz, AC3, 6c, 448 kbps
Субтитры: Русские, Английские

Семпл



Общее
Формат : Matroska
Версия формата : Version 2
Размер файла : 4,37 Гбайт
Продолжительность : 2 ч. 10 м.
Общий поток : 4788 Кбит/сек
Название фильма : Hannibal Rising (2007) BDRip 1080p Unrated от Dimok
Дата кодирования : UTC 2012-03-20 07:59:48
Программа кодирования : mkvmerge v5.4.0 ('Piper') built on Mar 10 2012 13:34:39
Библиотека кодирования : libebml v1.2.3 + libmatroska v1.3.0

Видео
Идентификатор : 1
Формат : AVC
Формат/Информация : Advanced Video Codec
Профиль формата : High@L4.1
Параметр CABAC формата : Да
Параметр ReFrames формата : 5 кадров
Идентификатор кодека : V_MPEG4/ISO/AVC
Продолжительность : 2 ч. 10 м.
Битрейт : 4341 Кбит/сек
Ширина : 1920 пикселей
Высота : 816 пикселей
Соотношение сторон : 2,35:1
Частота кадров : 23,976 кадра/сек
Цветовое пространство : YUV
Субдискретизация насыщенности : 4:2:0
Битовая глубина : 8 бит
Тип развёртки : Прогрессивная
Бит/(Пиксели*Кадры) : 0.116
Размер потока : 3,87 Гбайт (89%)
Библиотека кодирования : x264 core 120 r2164+656 2ff844c
Настройки программы : cabac=1 / ref=5 / deblock=1:0:0 / analyse=0x3:0x133 / me=umh / subme=10 / psy=1 / fade_compensate=0.00 / psy_rd=1.00:0.10 / mixed_ref=1 / me_range=32 / chroma_me=1 / trellis=2 / 8x8dct=1 / cqm=0 / deadzone=21,11 / fast_pskip=0 / chroma_qp_offset=-3 / threads=6 / sliced_threads=0 / nr=0 / decimate=1 / interlaced=0 / bluray_compat=0 / constrained_intra=0 / fgo=0 / bframes=6 / b_pyramid=2 / b_adapt=2 / b_bias=0 / direct=3 / weightb=1 / open_gop=0 / weightp=2 / keyint=240 / keyint_min=24 / scenecut=40 / intra_refresh=0 / rc_lookahead=60 / rc=2pass / mbtree=1 / bitrate=4341 / ratetol=1.0 / qcomp=0.60 / qpmin=0 / qpmax=69 / qpstep=4 / cplxblur=20.0 / qblur=0.5 / ip_ratio=1.40 / aq=1:1.00
Язык : English

Аудио
Идентификатор : 2
Формат : AC-3
Формат/Информация : Audio Coding 3
Расширение режима : CM (complete main)
Идентификатор кодека : A_AC3
Продолжительность : 2 ч. 10 м.
Вид битрейта : Постоянный
Битрейт : 448 Кбит/сек
Каналы : 6 каналов
Расположение каналов : Front: L C R, Side: L R, LFE
Частота : 48,0 КГц
Битовая глубина : 16 бит
Метод сжатия : С потерями
Задержка видео : 16 мс.
Размер потока : 418 Мбайт (9%)
Заголовок : Многоголосый закадровый - Киномания
Язык : Russian

Текст #1
Идентификатор : 3
Формат : UTF-8
Идентификатор кодека : S_TEXT/UTF8
Идентификатор кодека/Информация : UTF-8 Plain Text
Язык : Russian

Текст #2
Идентификатор : 4
Формат : UTF-8
Идентификатор кодека : S_TEXT/UTF8
Идентификатор кодека/Информация : UTF-8 Plain Text
Язык : English
загрузка...
Правила, инструкции, FAQ!!!
Торрент  Добавлен [18 окт 2013, 21:44] Скачать торрент
Скачать торрент
[ Размер 22.24 КБ / Просмотров 9 ]

Статус  
 
Размер  4.37 ГБ
Приватный: Нет (DHT включён)
.torrent скачан  77
Как залить торрент? | Как скачать Torrent? | Как смотреть и слушать онлайн?  


     Отправить личное сообщение
   
Страница 1 из 1
Показать сообщения за:  Поле сортировки  
Начать новую тему Ответить на тему

   Похожие торренты   Автор   Ответы   Просмотры   Последнее сообщение 
В этой теме нет новых непрочитанных сообщений. Скачать торрент Ганнибал: Восхождение / Hannibal Rising (Питер Веббер / Peter Webber) [2007 г., ужасы, триллер, драма, HDRip] [UNRATED] Dub

в форуме Ужасы, Размер: 1.46 ГБ, Здоровье: 100%

Anonymous

0
21|7

94
0

16 фев 2014, 13:08

Anonymous Перейти к последнему сообщению

В этой теме нет новых непрочитанных сообщений. Скачать торрент Ганнибал: Восхождение / Hannibal Rising (Питер Веббер / Peter Webber) [2007, триллер, драма, BDRip-AVC] MVO + AVO (Рябов) + Original + Subs (Rus, Eng)

в форуме 720p | 1080p, Размер: 2.88 ГБ, Здоровье: 100%

Anonymous

0
23|7

66
1

07 фев 2014, 11:42

Anonymous Перейти к последнему сообщению

В этой теме нет новых непрочитанных сообщений. Скачать торрент Ганнибал Лектер: Коллекция / Hannibal Lecter Collection (1986-2007) BDRip 1080p

в форуме Пенталогии, Размер: 57.76 ГБ, Здоровье: 100%

Anonymous

0
8|8

978
67

20 фев 2014, 21:36

Anonymous Перейти к последнему сообщению

В этой теме нет новых непрочитанных сообщений. Скачать торрент Гангстер / American Gangster (Ридли Скотт / Ridley Scott) [2007, США, Драма, криминал, BDRip-AVC] [Расширенная версия / Unrated Edition] Dub + MVO + original + sub (rus)

в форуме 720p | 1080p, Размер: 4.38 ГБ, Здоровье: 100%

Anonymous

0
9|3

76
0

12 фев 2014, 08:14

Anonymous Перейти к последнему сообщению

В этой теме нет новых непрочитанных сообщений. Скачать торрент Проверен [iPad] Гангстер / American Gangster (Ридли Скотт / Ridley Scott) [2007 г., драма, криминал, BDRip 720p] [Расширенная версия / Unrated Edition]

в форуме Фильмы для iPod, iPhone, iPad, Размер: 4.24 ГБ, Здоровье: 100%

Гость

0
17|5

76
1

14 май 2015, 00:02

Гость Перейти к последнему сообщению



Сейчас этот форум просматривают: нет зарегистрированных пользователей и гости: 3


Вы не можете начинать темы
Вы не можете отвечать на сообщения
Вы не можете редактировать свои сообщения
Вы не можете удалять свои сообщения
Вы не можете добавлять вложения

Перейти:  

!ВНИМАНИЕ!
 Ресурс не предоставляет электронные версии произведений, а занимается лишь коллекционированием и каталогизацией ссылок, присылаемых и публикуемых на форуме нашими читателями. Если вы являетесь правообладателем какого-либо представленного материала и не желаете чтобы ссылка на него находилась в нашем каталоге, свяжитесь с нами и мы незамедлительно удалим её. Файлы для обмена на трекере предоставлены пользователями сайта, и администрация не несёт ответственности за их содержание. Просьба не заливать файлы, защищенные авторскими правами, а также файлы нелегального содержания!