На всех торрентах на трекере установлена скидка на скачивание в размере 100 процентов(а).
 Возможность скачивания торрента НЕ зависит от ограничений при низком ратио, низком аплоаде, требуемом ратио или требуемом аплоаде.


Начать новую тему Ответить на тему
Статистика раздачи
Размер: 7.74 ГБ | Добавлен: 18 окт 2013, 20:29 | Скачали: 0
Сидеров: 0  [0 байт/сек]    Личеров: 0  [0 байт/сек]
Пред. тема | След. тема 

Автор
Сообщение

СообщениеДобавлено: 18 окт 2013, 20:29 

Информация о фильме
    Русское название: Однажды в Риме
    Оригинальное название: When in Rome
    Год выхода: 2010
    Жанр: Комедия, мелодрама
    Режиссер: Марк Стивен Джонсон
    Выпущено: США
    Продолжительность: 01:30:47
    Перевод: Дублированный
    В ролях: Кристен Белл, Дэнни Де Вито, Джош Дюамель, Анджелика Хьюстон, Уилл Арнетт, Джон Хидер, Дэкс Шепард, Алексис Дзена, Пегги Липтон, Люка Калвани


Сюжет фильма
    Успешная, но безнадежно одинокая девушка-искуcствовед Бет едет в Рим на свадьбу своей младшей сестры. В фонтане Треви она видит редкие и оттого ценные монеты. Совершив безобидную кражу, Бет становится объектом преследования нескольких мужчин, которые, ранее бросив эти монеты в фонтан, теперь влюбились в неё…


Файл
    Качество: BDRip 1080p (исходник Blu-ray Disc)
    Видео: 1920x800, 10958 Кбит/сек, 23,976 кадр/сек, AVC, x264, High@L4.1, 2.40:1, 0.298 Бит/[Пиксели*Кадры], 2pass
    Аудио 1: AC-3, 640 Кбит/сек, 6 канала(ов), 48,0 КГц - Дублированный / Русский
    Аудио 2: AC-3, 640 Кбит/сек, 6 канала(ов), 48,0 КГц - Оригинал / Английский
    Субтитры: Русские | Полные, Английские | Полные
    Чаптеры: Есть



Автор Рипа: Сообщество:



Format : Matroska
Format version : Version 2
File size : 7.74 GiB
Duration : 1h 30mn
Overall bit rate : 12.2 Mbps
Movie name : Однажды в Риме.(2010).BDRip.1080p.[envy]
Encoded date : UTC 2013-10-18 11:07:01
Writing application : mkvmerge v5.8.0 ('No Sleep / Pillow') built on Sep 2 2012 15:37:04
Writing library : libebml v1.2.3 + libmatroska v1.3.0

Video
ID : 1
Format : AVC
Format/Info : Advanced Video Codec
Format profile : High@L4.1
Format settings, CABAC : Yes
Format settings, ReFrames : 5 frames
Codec ID : V_MPEG4/ISO/AVC
Duration : 1h 30mn
Bit rate : 11.0 Mbps
Width : 1 920 pixels
Height : 800 pixels
Display aspect ratio : 2.40:1
Frame rate mode : Constant
Frame rate : 23.976 fps
Color space : YUV
Chroma subsampling : 4:2:0
Bit depth : 8 bits
Scan type : Progressive
Bits/(Pixel*Frame) : 0.298
Stream size : 6.78 GiB (88%)
Title : Однажды в Риме.(2010).BDRip.1080p.[envy]
Writing library : x264 core 138 r2358 9e941d1
Encoding settings : cabac=1 / ref=5 / deblock=1:-3:-3 / analyse=0x3:0x133 / me=umh / subme=11 / psy=1 / psy_rd=1.00:0.00 / mixed_ref=1 / me_range=32 / chroma_me=1 / trellis=2 / 8x8dct=1 / cqm=0 / deadzone=21,11 / fast_pskip=0 / chroma_qp_offset=-2 / threads=12 / lookahead_threads=1 / sliced_threads=0 / nr=0 / decimate=1 / interlaced=0 / bluray_compat=0 / constrained_intra=0 / bframes=6 / b_pyramid=2 / b_adapt=2 / b_bias=0 / direct=3 / weightb=1 / open_gop=0 / weightp=2 / keyint=240 / keyint_min=23 / scenecut=40 / intra_refresh=0 / rc=2pass / mbtree=0 / bitrate=10958 / ratetol=2.0 / qcomp=0.60 / qpmin=0 / qpmax=69 / qpstep=4 / cplxblur=20.0 / qblur=0.5 / ip_ratio=1.40 / pb_ratio=1.30 / aq=1:0.80
Language : English
Default : Yes
Forced : No

Audio #1
ID : 2
Format : AC-3
Format/Info : Audio Coding 3
Mode extension : CM (complete main)
Format settings, Endianness : Big
Codec ID : A_AC3
Duration : 1h 30mn
Bit rate mode : Constant
Bit rate : 640 Kbps
Channel count : 6 channels
Channel positions : Front: L C R, Side: L R, LFE
Sampling rate : 48.0 KHz
Bit depth : 16 bits
Compression mode : Lossy
Stream size : 416 MiB (5%)
Title : Дубляж
Language : Russian
Default : Yes
Forced : No

Audio #2
ID : 3
Format : AC-3
Format/Info : Audio Coding 3
Mode extension : CM (complete main)
Format settings, Endianness : Big
Codec ID : A_AC3
Duration : 1h 30mn
Bit rate mode : Constant
Bit rate : 640 Kbps
Channel count : 6 channels
Channel positions : Front: L C R, Side: L R, LFE
Sampling rate : 48.0 KHz
Bit depth : 16 bits
Compression mode : Lossy
Stream size : 416 MiB (5%)
Title : Оригинал
Language : English
Default : No
Forced : No

Text #1
ID : 4
Format : UTF-8
Codec ID : S_TEXT/UTF8
Codec ID/Info : UTF-8 Plain Text
Title : Полные
Language : Russian
Default : No
Forced : No

Text #2
ID : 5
Format : UTF-8
Codec ID : S_TEXT/UTF8
Codec ID/Info : UTF-8 Plain Text
Title : Full
Language : English
Default : No
Forced : No

Menu
00:00:00.000 : :Chapter 01
00:05:10.059 : :Chapter 02
00:10:58.199 : :Chapter 03
00:14:37.585 : :Chapter 04
00:18:48.585 : :Chapter 05
00:22:39.232 : :Chapter 06
00:26:50.525 : :Chapter 07
00:28:59.279 : :Chapter 08
00:35:16.197 : :Chapter 09
00:40:13.994 : :Chapter 10
00:44:20.908 : :Chapter 11
00:49:15.744 : :Chapter 12
00:54:26.012 : :Chapter 13
00:59:52.171 : :Chapter 14
01:05:51.948 : :Chapter 15
01:09:47.641 : :Chapter 16
01:14:57.242 : :Chapter 17
01:17:27.726 : :Chapter 18
01:22:09.090 : :Chapter 19
01:24:36.488 : :Chapter 20
загрузка...
Правила, инструкции, FAQ!!!
Торрент  Добавлен [18 окт 2013, 20:29] Скачать торрент
Скачать торрент
[ Размер 39.15 КБ / Просмотров 8 ]

Статус  
 
Размер  7.74 ГБ
Приватный: Нет (DHT включён)
.torrent скачан  0
Как залить торрент? | Как скачать Torrent? | Как смотреть и слушать онлайн?  


     Отправить личное сообщение
   
Страница 1 из 1
Показать сообщения за:  Поле сортировки  
Начать новую тему Ответить на тему

   Похожие торренты   Автор   Ответы   Просмотры   Последнее сообщение 
В этой теме нет новых непрочитанных сообщений. Скачать торрент Однажды в Риме / When in Rome (Марк Стивен Джонсон / Mark Steven Johnson) [2010 г., комедия, мелодрама, HDRip] Dub

в форуме Комедии, Размер: 744.09 МБ, Здоровье: 0%

Anonymous

0
0|0

81
0

16 апр 2014, 07:51

Anonymous Перейти к последнему сообщению

В этой теме нет новых непрочитанных сообщений. Скачать торрент Проверен [iPad] Однажды в Риме / When in Rome (Марк Стивен Джонсон / Mark Steven Johnson ) [2009, США, мелодрама, комедия, HDRip, SD (576p)] DUB + Original + sub (rus, eng)

в форуме Фильмы для iPod, iPhone, iPad, Размер: 1.56 ГБ, Здоровье: 100%

Гость

0
9|3

55
0

11 май 2015, 01:39

Гость Перейти к последнему сообщению

В этой теме нет новых непрочитанных сообщений. Скачать торрент Однажды в Ирландии / The Guard (2011) BDRip 1080p

в форуме 720p | 1080p, Размер: 7.76 ГБ, Здоровье: 0%

Anonymous

0
0|0

22
0

16 дек 2013, 23:54

Anonymous Перейти к последнему сообщению

В этой теме нет новых непрочитанных сообщений. Скачать торрент Проверен Однажды в Америке / Once Upon a Time in America (1984) BDRip 1080p | Extended Cut

в форуме 720p | 1080p, Размер: 15.52 ГБ, Здоровье: 100%

Anonymous

0
28|3

58
253

22 май 2014, 22:54

Anonymous Перейти к последнему сообщению

В этой теме нет новых непрочитанных сообщений. Скачать торрент Проверен Muse - Live At Rome Olympic Stadium [2013, Alternative Rock, BDRip 1080p]

в форуме Концерты (HD-Video), Размер: 6.56 ГБ, Здоровье: 100%

Гость

0
191|17

131
11

03 май 2015, 22:09

Гость Перейти к последнему сообщению



Сейчас этот форум просматривают: нет зарегистрированных пользователей и гости: 1


Вы не можете начинать темы
Вы не можете отвечать на сообщения
Вы не можете редактировать свои сообщения
Вы не можете удалять свои сообщения
Вы не можете добавлять вложения

Перейти:  

!ВНИМАНИЕ!
 Ресурс не предоставляет электронные версии произведений, а занимается лишь коллекционированием и каталогизацией ссылок, присылаемых и публикуемых на форуме нашими читателями. Если вы являетесь правообладателем какого-либо представленного материала и не желаете чтобы ссылка на него находилась в нашем каталоге, свяжитесь с нами и мы незамедлительно удалим её. Файлы для обмена на трекере предоставлены пользователями сайта, и администрация не несёт ответственности за их содержание. Просьба не заливать файлы, защищенные авторскими правами, а также файлы нелегального содержания!