На всех торрентах на трекере установлена скидка на скачивание в размере 100 процентов(а).
 Возможность скачивания торрента НЕ зависит от ограничений при низком ратио, низком аплоаде, требуемом ратио или требуемом аплоаде.


Начать новую тему Ответить на тему
Статистика раздачи
Размер: 16.59 ГБ | Добавлен: 18 окт 2013, 19:44 | Скачали: 0
Сидеров: 0  [0 байт/сек]    Личеров: 0  [0 байт/сек]
Пред. тема | След. тема 

Автор
Сообщение

СообщениеДобавлено: 18 окт 2013, 19:44 

Робот / Robot / Endhiran (2010) BDRip


«Человек... Машина... Любовь...?»

Русское название: Робот
Оригинальное название: Robot / Endhiran
Год выпуска: 2010
Страна: Индия
Жанр: Фантастика, Боевик, Мелодрама, Комедия

Описание фильма:
Он умеет многое — драться, петь и танцевать, он водонепроницаемый и огнестойкий. Он может делать все, что может человек и даже больше! Он дословно выполняет инструкции. Если человек может солгать, чтобы спасти себя, то этот робот лгать не умеет. У него острая как бритва память, и он запоминает весь телефонный справочник, едва пробежав по нему глазами. Его имя — Читти.
Но… Есть одна проблема: человеческие эмоции Читти недоступны.
И однажды Доктор Васи, модернизируя процессор робота, не осознавая последствий, добавляет имитатор человеческих эмоций. Читти полностью меняется. Теперь он может чувствовать, и первое чувство, которое он открывает для себя — это любовь…
Не помешает ли эта любовь достижению цели, которую преследовал доктор Васи, создавая робота? Не уничтожит ли ученого его собственное творение?


Режиссер: Шанкар Шанмугам
Актеры: Раджникант, Айшварья Рай, Денни Денгзонгпа, Карунас, Кочин Ганифа, Шрия Шарма, Сабу Сирил, Сантханам

Продолжительность: 02:57:11
Перевод: Профессиональный (многоголосый закадровый) - R5, Профессиональный (многоголосый закадровый) - ТВ-3
Язык субтитров: Русский (полные / только песни), английский
Вид субтитров: Вшитые отключаемые



Дата мировой премьеры: 30 сентября 2010
Дата выхода DVD релиза: 3 ноября 2011, «Русское счастье»
Видеокодек: MPEG-4 AVC/H.264
Битрейт видео: ~11,3 Мбит/сек
Размер кадра: 1920x816
Качество видео: BDRip 1080p

Аудиокодек: AC3 , DTS
Аудио #1: Русский ( AC3 / 5.1 / 48 kHz / 448 kbps ) - Профессиональный (многоголосый) - R5
Аудио #2: Русский ( AC3 / 2.0 / 48 kHz / 192 kbps ) - Профессиональный (многоголосый) - ТВ-3
Аудио #3: Тамильский ( DTS / 5.1 / 48 kHz / 1536 kbps )

Общее
Уникальный идентификатор : 214932424029299977213465778348695697739 (0xA1B27AA94C2F7096A1174EC4F3E7394B)
Полное имя : Робот _ Robot.2010.BDRip.1080p..mkv
Формат : Matroska
Версия формата : Version 4 / Version 2
Размер файла : 16,6 Гбайт
Продолжительность : 2 ч. 57 м.
Общий поток : 13,4 Мбит/сек
Название фильма : Endhiran. 2010. BDRip (1080p) - Kinozal.TV-HD (by YlNiAn)
Дата кодирования : UTC 2013-03-23 10:01:22
Программа кодирования : mkvmerge v6.1.0 ('Old Devil') built on Mar 2 2013 14:32:37
Библиотека кодирования : libebml v1.3.0 + libmatroska v1.4.0

Видео
Идентификатор : 1
Формат : AVC
Формат/Информация : Advanced Video Codec
Профиль формата :
Параметр CABAC формата : Да
Параметр ReFrames формата : 5 кадров
Идентификатор кодека : V_MPEG4/ISO/AVC
Продолжительность : 2 ч. 57 м.
Битрейт : 11,3 Мбит/сек
Ширина : 1920 пикселей
Высота : 816 пикселей
Соотношение сторон : 2,35:1
Режим частоты кадров : Постоянный
Частота кадров : 24,000 кадра/сек
Цветовое пространство : YUV
Субдискретизация насыщенности : 4:2:0
Битовая глубина : 8 бит
Тип развёртки : Прогрессивная
Бит/(Пиксели*Кадры) : 0.299
Размер потока : 13,6 Гбайт (82%)
Заголовок : Endhiran. 2010. BDRip (1080p)
Библиотека кодирования : x264 core 107 r1766 f9f0035
Настройки программы : cabac=1 / ref=5 / deblock=1:-3:-3 / analyse=0x3:0x113 / me=umh / subme=10 / psy=1 / psy_rd=1.05:0.10 / mixed_ref=1 / me_range=32 / chroma_me=1 / trellis=2 / 8x8dct=1 / cqm=2 / deadzone=21,11 / fast_pskip=0 / chroma_qp_offset=-2 / threads=12 / sliced_threads=0 / nr=0 / decimate=1 / interlaced=0 / constrained_intra=0 / bframes=6 / b_pyramid=2 / b_adapt=2 / b_bias=0 / direct=3 / weightb=1 / open_gop=0 / weightp=2 / keyint=250 / keyint_min=24 / scenecut=40 / intra_refresh=0 / rc_lookahead=50 / rc=2pass / mbtree=1 / bitrate=11255 / ratetol=1.0 / qcomp=0.70 / qpmin=10 / qpmax=51 / qpstep=4 / cplxblur=20.0 / qblur=0.5 / vbv_maxrate=40000 / vbv_bufsize=30000 / ip_ratio=1.40 / aq=1:0.80 / nal_hrd=none
Язык : Tamil
Default : Да
Forced : Да

Аудио #1
Идентификатор : 2
Формат : AC-3
Формат/Информация : Audio Coding 3
Расширение режима : CM (complete main)
Параметр Endianness формата : Big
Идентификатор кодека : A_AC3
Продолжительность : 2 ч. 57 м.
Вид битрейта : Постоянный
Битрейт : 448 Кбит/сек
Каналы : 6 каналов
Расположение каналов : Front: L C R, Side: L R, LFE
Частота : 48,0 КГц
Битовая глубина : 16 бит
Метод сжатия : С потерями
Размер потока : 568 Мбайт (3%)
Заголовок : DD 5.1 @ 448 kbps MVO, R5
Язык : Russian
Default : Да
Forced : Да

Аудио #2
Идентификатор : 3
Формат : AC-3
Формат/Информация : Audio Coding 3
Расширение режима : CM (complete main)
Параметр Endianness формата : Big
Идентификатор кодека : A_AC3
Продолжительность : 2 ч. 57 м.
Вид битрейта : Постоянный
Битрейт : 192 Кбит/сек
Каналы : 2 канала
Расположение каналов : Front: L R
Частота : 48,0 КГц
Битовая глубина : 16 бит
Метод сжатия : С потерями
Задержка видео : 9 с. 0 мс.
Размер потока : 243 Мбайт (1%)
Заголовок : MVO (TV-3) (AC3 2.0 192 kbps)
Язык : Russian
Default : Нет
Forced : Нет

Аудио #3
Идентификатор : 4
Формат : DTS
Формат/Информация : Digital Theater Systems
Идентификатор кодека : A_DTS
Продолжительность : 2 ч. 57 м.
Вид битрейта : Постоянный
Битрейт : 1510 Кбит/сек
Каналы : 6 каналов
Расположение каналов : Front: L C R, Side: L R, LFE
Частота : 48,0 КГц
Битовая глубина : 24 бит
Метод сжатия : С потерями
Размер потока : 1,87 Гбайт (11%)
Заголовок : DTS 5.1 1536 kbps
Язык : Tamil
Default : Нет
Forced : Нет

Текст #1
Идентификатор : 5
Формат : UTF-8
Идентификатор кодека : S_TEXT/UTF8
Идентификатор кодека/Информация : UTF-8 Plain Text
Заголовок : forced
Язык : Russian
Default : Да
Forced : Нет

Текст #2
Идентификатор : 6
Формат : UTF-8
Идентификатор кодека : S_TEXT/UTF8
Идентификатор кодека/Информация : UTF-8 Plain Text
Заголовок : full
Язык : Russian
Default : Нет
Forced : Нет

Текст #3
Идентификатор : 7
Формат : UTF-8
Идентификатор кодека : S_TEXT/UTF8
Идентификатор кодека/Информация : UTF-8 Plain Text
Язык : English
Default : Нет
Forced : Нет

Меню
00:00:00.000 : en:00:00:00.000
00:03:26.708 : en:00:03:26.708
00:12:00.375 : en:00:12:00.375
00:20:21.042 : en:00:20:21.042
00:25:56.708 : en:00:25:56.708
00:36:33.667 : en:00:36:33.667
00:46:09.708 : en:00:46:09.708
00:53:01.250 : en:00:53:01.250
00:57:32.500 : en:00:57:32.500
01:03:14.250 : en:01:03:14.250
01:10:06.250 : en:01:10:06.250
01:19:13.375 : en:01:19:13.375
01:23:44.583 : en:01:23:44.583
01:28:53.708 : en:01:28:53.708
01:39:41.833 : en:01:39:41.833
01:50:26.167 : en:01:50:26.167
01:55:54.208 : en:01:55:54.208
02:01:23.208 : en:02:01:23.208
02:08:18.833 : en:02:08:18.833
02:14:46.875 : en:02:14:46.875
02:23:22.792 : en:02:23:22.792
02:28:35.542 : en:02:28:35.542
02:39:34.042 : en:02:39:34.042
02:44:53.667 : en:02:44:53.667
02:50:30.167 : en:02:50:30.167

Скриншоты:



загрузка...
Правила, инструкции, FAQ!!!
Торрент  Добавлен [18 окт 2013, 19:44] Скачать торрент
Скачать торрент
[ Размер 42.3 КБ / Просмотров 11 ]

Статус  
 
Размер  16.59 ГБ
Приватный: Нет (DHT включён)
.torrent скачан  0
Как залить торрент? | Как скачать Torrent? | Как смотреть и слушать онлайн?  


     Отправить личное сообщение
   
Страница 1 из 1
Показать сообщения за:  Поле сортировки  
Начать новую тему Ответить на тему

   Похожие торренты   Автор   Ответы   Просмотры   Последнее сообщение 
В этой теме нет новых непрочитанных сообщений. Скачать торрент Я, робот / I, Robot (Алекс Пройас / Alex Proyas) [2004, США, фантастика, боевик, триллер, детектив, BDRip] Dub

в форуме Фантастика, Фэнтези, Размер: 2.18 ГБ, Здоровье: 100%

Anonymous

0
56|19

42
0

24 апр 2014, 14:10

Anonymous Перейти к последнему сообщению

В этой теме нет новых непрочитанных сообщений. Скачать торрент Проверен OST - Я-Робот / I Robot (2015) MP3

в форуме Зарубежная музыка, Размер: 94.12 МБ, Здоровье: 100%

Anonymous

0
82|0

75
75

18 ноя 2015, 20:18

Anonymous Перейти к последнему сообщению

В этой теме нет новых непрочитанных сообщений. Скачать торрент Проверен Меня зовут Джиг Робот / Lo chiamavano Jeeg Robot (2015) HDRip | L1

в форуме Боевики, Размер: 1.44 ГБ, Здоровье: 100%

Гость

0
465|121

143
1265

17 ноя 2016, 23:27

Гость Перейти к последнему сообщению

В этой теме нет новых непрочитанных сообщений. Скачать торрент Проверен Азимов Айзек - Детектив Элайдж Бейли и робот Дэниел Оливо / Isaac Asimov - The Robot Series (The Caves of Steel, The Naked Sun, The Robots of Dawn) [William Dufris, 2007 г., Фантастика, VBR 32-64 kbps]

в форуме Аудиокниги (AAC, ALAC), Размер: 783.63 МБ, Здоровье: 0%

Anonymous

0
0|0

4
0

28 авг 2016, 17:43

Anonymous Перейти к последнему сообщению

В этой теме нет новых непрочитанных сообщений. Скачать торрент Проверен Робот по имени Чаппи / Chappie (2015) WEB-DL 1080p | iTunes

в форуме 720p | 1080p, Размер: 4.16 ГБ, Здоровье: 100%

Anonymous

0
19899|4513

55
50781

16 май 2015, 00:23

Anonymous Перейти к последнему сообщению



Сейчас этот форум просматривают: нет зарегистрированных пользователей и гости: 2


Вы не можете начинать темы
Вы не можете отвечать на сообщения
Вы не можете редактировать свои сообщения
Вы не можете удалять свои сообщения
Вы не можете добавлять вложения

Перейти:  

!ВНИМАНИЕ!
 Ресурс не предоставляет электронные версии произведений, а занимается лишь коллекционированием и каталогизацией ссылок, присылаемых и публикуемых на форуме нашими читателями. Если вы являетесь правообладателем какого-либо представленного материала и не желаете чтобы ссылка на него находилась в нашем каталоге, свяжитесь с нами и мы незамедлительно удалим её. Файлы для обмена на трекере предоставлены пользователями сайта, и администрация не несёт ответственности за их содержание. Просьба не заливать файлы, защищенные авторскими правами, а также файлы нелегального содержания!