На всех торрентах на трекере установлена скидка на скачивание в размере 100 процентов(а).
 Возможность скачивания торрента НЕ зависит от ограничений при низком ратио, низком аплоаде, требуемом ратио или требуемом аплоаде.


Начать новую тему Ответить на тему
Статистика раздачи
Размер: 1.45 ГБ | Добавлен: 12 окт 2013, 19:40 | Скачали: 1
Сидеров: 0  [0 байт/сек]    Личеров: 1  [0 байт/сек]
Пред. тема | След. тема 

Автор
Сообщение

СообщениеДобавлено: 12 окт 2013, 19:40 

Название: Q: Загадка женщины
Оригинальное название: Q
Год выхода: 2011
Жанр: драма, мелодрама
Режиссер: Лоран Буник

В ролях: Дебора Реви, Хелен Зиммер, Гоуэн Диди, Джонни Амаро, Жоан Либеро, Жан-Франсуа Галлот, Брайс Форнье, Кристелль Бенуа, Патрик Готье, Летиция Белличчини, Фабьен Ара, Аурелия Арто, Кристин Мартин, Бернард Вернь, Луди Бокен, Паскаль Юделевич, Лоранс Гормезано, Мишель Гондуэн, Винсент Джили

О фильме: Когда судьба приводит людей на грань отчаяния, единственным способом вновь ощутить вкус жизни может стать нежданный аттракцион грандиозных чувственных наслаждений, которые способна дарить каждому новому знакомому очаровательная Сесиль. Попадая к юной красотке в сладкий плен удовольствий, любой теряет голову; все прочее перестает иметь для него значение, кроме одного — секс, секс, секс…



Страна: Франция
Продолжительность: 01:42:43
Перевод: Профессиональный (многоголосый закадровый)


Кодек: х.264
Качество: HDRip-AVC
Видео: 960х528 (16:9), 25 fps, 1832 kbps, 0.145 bit/pixel
Звук: 48 kHz, AC3 Dolby Digital, 2 ch, ~192.00 kbps

&

Общее
Уникальный идентификатор : 248875986054412699021571846585169976088 (0xBB3BC57A58B3DE9C8C5989A4A5279B18)
Полное имя : D:Q.Sexual Desire.2011.HDRip-AVC.mkv
Формат : Matroska
Версия формата : Version 4 / Version 2
Размер файла : 1,45 Гбайт
Продолжительность : 1 ч. 42 м.
Общий поток : 2026 Кбит/сек
Название фильма : Q: Загадка женщины / Q: Sexual Desire (2011) HDRip-AVC rip by Rulya74
Дата кодирования : UTC 2013-10-12 05:28:33
Программа кодирования : mkvmerge v6.2.0 ('Promised Land') built on Apr 28 2013 12:22:01
Библиотека кодирования : libebml v1.3.0 + libmatroska v1.4.0

Видео
Идентификатор : 1
Формат : AVC
Формат/Информация : Advanced Video Codec
Профиль формата : High@L4.1
Параметр CABAC формата : Да
Параметр ReFrames формата : 7 кадров
Идентификатор кодека : V_MPEG4/ISO/AVC
Продолжительность : 1 ч. 42 м.
Битрейт : 1832 Кбит/сек
Ширина : 960 пикселей
Высота : 528 пикселей
Соотношение сторон : 16:9
Режим частоты кадров : Постоянный
Частота кадров : 25,000 кадров/сек
Цветовое пространство : YUV
Субдискретизация насыщенности : 4:2:0
Битовая глубина : 8 бит
Тип развёртки : Прогрессивная
Бит/(Пиксели*Кадры) : 0.145
Размер потока : 1,29 Гбайт (89%)
Библиотека кодирования : x264 core 133 r2334 a3ac64b
Настройки программы : cabac=1 / ref=7 / deblock=1:-1:-1 / analyse=0x3:0x113 / me=umh / subme=10 / psy=1 / psy_rd=1.06:0.01 / mixed_ref=1 / me_range=48 / chroma_me=1 / trellis=2 / 8x8dct=1 / cqm=0 / deadzone=21,11 / fast_pskip=0 / chroma_qp_offset=-3 / threads=4 / lookahead_threads=1 / sliced_threads=0 / nr=0 / decimate=1 / interlaced=0 / bluray_compat=0 / constrained_intra=0 / bframes=15 / b_pyramid=2 / b_adapt=1 / b_bias=0 / direct=3 / weightb=1 / open_gop=0 / weightp=2 / keyint=250 / keyint_min=25 / scenecut=40 / intra_refresh=0 / rc_lookahead=40 / rc=2pass / mbtree=1 / bitrate=1832 / ratetol=1.0 / qcomp=0.60 / qpmin=10 / qpmax=69 / qpstep=4 / cplxblur=20.0 / qblur=0.5 / vbv_maxrate=62500 / vbv_bufsize=78125 / nal_hrd=none / ip_ratio=1.40 / aq=2:1.00
Default : Да
Forced : Нет

Аудио
Идентификатор : 2
Формат : AC-3
Формат/Информация : Audio Coding 3
Расширение режима : CM (complete main)
Параметр Endianness формата : Big
Идентификатор кодека : A_AC3
Продолжительность : 1 ч. 42 м.
Вид битрейта : Постоянный
Битрейт : 192 Кбит/сек
Каналы : 2 канала
Расположение каналов : Front: L R
Частота : 48,0 КГц
Битовая глубина : 16 бит
Метод сжатия : С потерями
Размер потока : 141 Мбайт (9%)
Заголовок : Профессиональный (многоголосый закадровый)
Язык : Russian
Default : Да
Forced : Нет

загрузка...
Правила, инструкции, FAQ!!!
Торрент  Добавлен [12 окт 2013, 19:40] Скачать торрент
Скачать торрент
[ Размер 14.96 КБ / Просмотров 11 ]

Статус  
 
Размер  1.45 ГБ
Приватный: Нет (DHT включён)
.torrent скачан  1
Как залить торрент? | Как скачать Torrent? | Как смотреть и слушать онлайн?  


     Отправить личное сообщение
   
Страница 1 из 1
Показать сообщения за:  Поле сортировки  
Начать новую тему Ответить на тему

   Похожие торренты   Автор   Ответы   Просмотры   Последнее сообщение 
В этой теме нет новых непрочитанных сообщений. Скачать торрент Q: Загадка женщины / Q (2011) BDRip-AVC 720p | Uncut version

в форуме 720p | 1080p, Размер: 2.49 ГБ, Здоровье: 100%

Anonymous

0
12|0

128
5

18 фев 2014, 07:58

Anonymous Перейти к последнему сообщению

В этой теме нет новых непрочитанных сообщений. Скачать торрент Проверен Книжная серия | О чем мечтают женщины. О чем говорят женщины (14 книг) [2011-2012] [FB2]

в форуме Многоавторские сборники, Размер: 12.94 МБ, Здоровье: 27%

Anonymous

0
15|55

144
3

18 авг 2014, 14:35

Anonymous Перейти к последнему сообщению

В этой теме нет новых непрочитанных сообщений. Скачать торрент Доктор «Т» и его женщины / Dr. T and the Women (2000) HDRip

в форуме Драмы, Мелодрамы, Размер: 1.46 ГБ, Здоровье: 0%

Anonymous

0
0|0

47
0

20 дек 2013, 10:35

Anonymous Перейти к последнему сообщению

В этой теме нет новых непрочитанных сообщений. Скачать торрент Проверен Мэри Спиллейн - Имидж женщины. Пособие для преуспевающей женщины [1998, DjVu, RUS]

в форуме Мода. Стиль. Этикет, Размер: 1.78 МБ, Здоровье: 100%

Anonymous

0
32|2

37
4

16 фев 2016, 21:41

Anonymous Перейти к последнему сообщению

В этой теме нет новых непрочитанных сообщений. Скачать торрент Женщины с 6-го этажа / Les Femmes du 6e étage (Филипп Ле Гюэ / Philippe Le Guay) [2010, Франция, комедия, HDRip] VO [zamez]

в форуме Комедии, Размер: 1.45 ГБ, Здоровье: 0%

Anonymous

0
0|0

75
0

19 апр 2014, 18:52

Anonymous Перейти к последнему сообщению



Сейчас этот форум просматривают: нет зарегистрированных пользователей и гости: 1


Вы не можете начинать темы
Вы не можете отвечать на сообщения
Вы не можете редактировать свои сообщения
Вы не можете удалять свои сообщения
Вы не можете добавлять вложения

Перейти:  

!ВНИМАНИЕ!
 Ресурс не предоставляет электронные версии произведений, а занимается лишь коллекционированием и каталогизацией ссылок, присылаемых и публикуемых на форуме нашими читателями. Если вы являетесь правообладателем какого-либо представленного материала и не желаете чтобы ссылка на него находилась в нашем каталоге, свяжитесь с нами и мы незамедлительно удалим её. Файлы для обмена на трекере предоставлены пользователями сайта, и администрация не несёт ответственности за их содержание. Просьба не заливать файлы, защищенные авторскими правами, а также файлы нелегального содержания!