На всех торрентах на трекере установлена скидка на скачивание в размере 100 процентов(а).
 Возможность скачивания торрента НЕ зависит от ограничений при низком ратио, низком аплоаде, требуемом ратио или требуемом аплоаде.


Начать новую тему Ответить на тему
Статистика раздачи
Размер: 7.75 ГБ | Добавлен: 11 окт 2013, 23:28 | Скачали: 0
Сидеров: 0  [0 байт/сек]    Личеров: 0  [0 байт/сек]
Пред. тема | След. тема 

Автор
Сообщение

СообщениеДобавлено: 11 окт 2013, 23:28 

Информация о фильме
    Русское название: Да, возможно
    Оригинальное название: Definitely, Maybe
    Год выхода: 2008
    Жанр: Комедия, мелодрама, драма
    Режиссер: Адам Брукс
    Выпущено: США
    Продолжительность: 01:51:42
    Перевод: Профессиональный (многоголосый закадровый)
    В ролях: Райан Рейнольдс, Эн Нгуйен, Мэттью Мэйсон, Рик Дёрби, Сакина Джэффри, Боб Вилтфонг, Райдер Чейсин, Фиона Лэйн, Дэна Эскелсон, Блейк Бенитез, Эбигейл Бреслин, Элизабет Бэнкс, Айла Фишер, Кевин Клайн, Рейчел Вайс


Сюжет фильма
    Никогда не поздно вернуться назад… и возможно обрести счастье. Уилл Хэйс — нью-йоркский папаша, слегка за тридцать. Его развод в самом разгаре, когда десятилетняя дочь Майя начинает задавать отцу вопросы о его жизни до брака. Уилл рассказывает про свои взлеты и падения: соседка Эмили, лучшая подруга и родственная душа Эйприл, свободолюбивая Саммер…
    Три романа… три разбитых сердца. Майя складывает кусочки романтической головоломки, и ей открывается, что любовь не бывает простой… а Уилл понимает, что в делах сердечных никогда не поздно рискнуть еще раз.


Файл
    Качество: BDRip 1080p (исходник Blu-ray Remux)
    Видео: 1920x818, 8924 Кбит/сек, 23,976 кадр/сек, AVC, x264, High@L4.1, 2.35:1, 0.237 Бит/[Пиксели*Кадры], 2pass
    Аудио 1: AC-3, 384 Кбит/сек, 6 канала(ов), 48,0 КГц - Многоголосый закадровый / Русский
    Аудио 2: AC-3, 640 Кбит/сек, 6 канала(ов), 48,0 КГц - Оригинал / Английский
    Субтитры: Русские | Полные, Английские | Полные
    Чаптеры: Есть



Автор Рипа: Сообщество:



Format : Matroska
Format version : Version 2
File size : 7.75 GiB
Duration : 1h 51mn
Overall bit rate : 9 932 Kbps
Movie name : Да, возможно.(2008).BDRip.1080p.[envy]
Encoded date : UTC 2013-10-11 19:29:26
Writing application : mkvmerge v5.8.0 ('No Sleep / Pillow') built on Sep 2 2012 15:37:04
Writing library : libebml v1.2.3 + libmatroska v1.3.0

Video
ID : 1
Format : AVC
Format/Info : Advanced Video Codec
Format profile : High@L4.1
Format settings, CABAC : Yes
Format settings, ReFrames : 5 frames
Codec ID : V_MPEG4/ISO/AVC
Duration : 1h 51mn
Bit rate : 8 924 Kbps
Width : 1 920 pixels
Height : 818 pixels
Display aspect ratio : 2.35:1
Frame rate mode : Constant
Frame rate : 23.976 fps
Color space : YUV
Chroma subsampling : 4:2:0
Bit depth : 8 bits
Scan type : Progressive
Bits/(Pixel*Frame) : 0.237
Stream size : 6.80 GiB (88%)
Title : Да, возможно.(2008).BDRip.1080p.[envy]
Writing library : x264 core 138 r2358 9e941d1
Encoding settings : cabac=1 / ref=5 / deblock=1:-3:-3 / analyse=0x3:0x133 / me=umh / subme=11 / psy=1 / psy_rd=1.00:0.00 / mixed_ref=1 / me_range=32 / chroma_me=1 / trellis=2 / 8x8dct=1 / cqm=0 / deadzone=21,11 / fast_pskip=0 / chroma_qp_offset=-2 / threads=12 / lookahead_threads=1 / sliced_threads=0 / nr=0 / decimate=1 / interlaced=0 / bluray_compat=0 / constrained_intra=0 / bframes=6 / b_pyramid=2 / b_adapt=2 / b_bias=0 / direct=3 / weightb=1 / open_gop=0 / weightp=2 / keyint=240 / keyint_min=23 / scenecut=40 / intra_refresh=0 / rc=2pass / mbtree=0 / bitrate=8924 / ratetol=2.0 / qcomp=0.60 / qpmin=0 / qpmax=69 / qpstep=4 / cplxblur=20.0 / qblur=0.5 / ip_ratio=1.40 / pb_ratio=1.30 / aq=1:0.80
Language : English
Default : Yes
Forced : No

Audio #1
ID : 2
Format : AC-3
Format/Info : Audio Coding 3
Mode extension : CM (complete main)
Format settings, Endianness : Big
Codec ID : A_AC3
Duration : 1h 51mn
Bit rate mode : Constant
Bit rate : 384 Kbps
Channel count : 6 channels
Channel positions : Front: L C R, Side: L R, LFE
Sampling rate : 48.0 KHz
Bit depth : 16 bits
Compression mode : Lossy
Stream size : 307 MiB (4%)
Title : Многоголосый закадровый
Language : Russian
Default : Yes
Forced : No

Audio #2
ID : 3
Format : AC-3
Format/Info : Audio Coding 3
Mode extension : CM (complete main)
Format settings, Endianness : Big
Codec ID : A_AC3
Duration : 1h 51mn
Bit rate mode : Constant
Bit rate : 640 Kbps
Channel count : 6 channels
Channel positions : Front: L C R, Side: L R, LFE
Sampling rate : 48.0 KHz
Bit depth : 16 bits
Compression mode : Lossy
Stream size : 511 MiB (6%)
Title : Оригинал
Language : English
Default : No
Forced : No

Text #1
ID : 4
Format : UTF-8
Codec ID : S_TEXT/UTF8
Codec ID/Info : UTF-8 Plain Text
Title : Полные
Language : Russian
Default : No
Forced : No

Text #2
ID : 5
Format : UTF-8
Codec ID : S_TEXT/UTF8
Codec ID/Info : UTF-8 Plain Text
Title : Full
Language : English
Default : No
Forced : No

Menu
00:00:00.000 : :Chapter 01
00:05:56.856 : :Chapter 02
00:11:45.037 : :Chapter 03
00:18:52.840 : :Chapter 04
00:21:40.757 : :Chapter 05
00:27:51.503 : :Chapter 06
00:31:52.827 : :Chapter 07
00:38:15.626 : :Chapter 08
00:42:16.909 : :Chapter 09
00:50:41.163 : :Chapter 10
00:58:33.510 : :Chapter 11
01:04:29.824 : :Chapter 12
01:09:41.177 : :Chapter 13
01:14:06.859 : :Chapter 14
01:19:59.127 : :Chapter 15
01:27:16.564 : :Chapter 16
01:33:17.633 : :Chapter 17
01:36:32.620 : :Chapter 18
01:40:58.510 : :Chapter 19

загрузка...
Правила, инструкции, FAQ!!!
Торрент  Добавлен [11 окт 2013, 23:28] Скачать торрент
Скачать торрент
[ Размер 39.17 КБ / Просмотров 9 ]

Статус  
 
Размер  7.75 ГБ
Приватный: Нет (DHT включён)
.torrent скачан  0
Как залить торрент? | Как скачать Torrent? | Как смотреть и слушать онлайн?  


     Отправить личное сообщение
   
Страница 1 из 1
Показать сообщения за:  Поле сортировки  
Начать новую тему Ответить на тему

   Похожие торренты   Автор   Ответы   Просмотры   Последнее сообщение 
В этой теме нет новых непрочитанных сообщений. Скачать торрент Всё ещё возможно / Da geht noch was! (2013) BDRip 1080p | L1

в форуме 720p | 1080p, Размер: 5.38 ГБ, Здоровье: 100%

Anonymous

0
4|0

23
18

26 мар 2014, 22:37

Anonymous Перейти к последнему сообщению

В этой теме нет новых непрочитанных сообщений. Скачать торрент Да, возможно / Да, нет, наверное / Definitely, Maybe (Адам Брукс / Adam Brooks) [2008, США, комедия, HDTVRip]

в форуме Комедии, Размер: 2.18 ГБ, Здоровье: 0%

Anonymous

0
0|0

25
0

19 фев 2014, 09:54

Anonymous Перейти к последнему сообщению

В этой теме нет новых непрочитанных сообщений. Скачать торрент 10 000 лет до н.э. / 10,000 BC (2008) BDRip 1080p | Лицензия

в форуме 720p | 1080p, Размер: 6.71 ГБ, Здоровье: 0%

Anonymous

0
0|0

109
0

09 фев 2014, 21:02

Anonymous Перейти к последнему сообщению

В этой теме нет новых непрочитанных сообщений. Скачать торрент Проверен Патология / Pathology (2008) BDRip 1080p | D

в форуме 720p | 1080p, Размер: 4.85 ГБ, Здоровье: 100%

Anonymous

0
24|3

14
295

03 ноя 2014, 12:13

Anonymous Перейти к последнему сообщению

В этой теме нет новых непрочитанных сообщений. Скачать торрент Предатель / Traitor (2008) BDRip 1080p

в форуме 720p | 1080p, Размер: 10.13 ГБ, Здоровье: 0%

Anonymous

0
0|0

17
0

18 фев 2014, 14:24

Anonymous Перейти к последнему сообщению



Сейчас этот форум просматривают: Bing [Bot] и гости: 4


Вы не можете начинать темы
Вы не можете отвечать на сообщения
Вы не можете редактировать свои сообщения
Вы не можете удалять свои сообщения
Вы не можете добавлять вложения

Перейти:  

!ВНИМАНИЕ!
 Ресурс не предоставляет электронные версии произведений, а занимается лишь коллекционированием и каталогизацией ссылок, присылаемых и публикуемых на форуме нашими читателями. Если вы являетесь правообладателем какого-либо представленного материала и не желаете чтобы ссылка на него находилась в нашем каталоге, свяжитесь с нами и мы незамедлительно удалим её. Файлы для обмена на трекере предоставлены пользователями сайта, и администрация не несёт ответственности за их содержание. Просьба не заливать файлы, защищенные авторскими правами, а также файлы нелегального содержания!