На всех торрентах на трекере установлена скидка на скачивание в размере 100 процентов(а).
 Возможность скачивания торрента НЕ зависит от ограничений при низком ратио, низком аплоаде, требуемом ратио или требуемом аплоаде.


Начать новую тему Ответить на тему
Статистика раздачи
Размер: 3.6 ГБ | Добавлен: 08 окт 2013, 16:55 | Скачали: 1
Сидеров: 0  [0 байт/сек]    Личеров: 0  [0 байт/сек]
Пред. тема | След. тема 

Автор
Сообщение

СообщениеДобавлено: 08 окт 2013, 16:55 

Название: Тюряга / Взаперти
Оригинальное название: Lock Up
Год выхода: 1989
Жанр: боевик, драма, криминал
Режиссер: Джон Флинн

В ролях: Сильвестр Сталлоне, Дональд Сазерленд, Джон Эймос, Сонни Лэндэм, Том Сайзмор, Фрэнк МакРей, Дарлэнн Флюгел, Уильям Аллен Янг, Ларри Романо, Джордан Лунд, Джон Лилла, Джерри Стривелли, Дэвид Энтони Маршалл, Курек Эшли, Майкл Петрони, Дэнни Трехо, Фрэнк Д’Аннибал, Тони Лип, Кларенс Мур, Джо Пентанджело, Эли Рич, Бо Ракер, Рэнди Сэндкул, Роберт Васкез, Тони Мунафо, Фрэнк Пеше, Трой Карви мл.

О фильме:
Фрэнк Леоне — самый обычный парень, совершил ошибку в жизни, убив человека обороняясь. Он отбывает оставшиеся ему полгода и с нетерпением смотрит в будущее, которое он проведет со своей женой. В будущее, которое может и не наступить, так как в один прекрасный день без всяких объяснений его переводят в одну из тюрем строгого режима и по совместительству самую гнусную тюрягу в стране...



Страна: США
Студия: Carolco Pictures Inc., Gordon Company, White Eagle
Продолжительность: 01:48:54
Перевод: Профессиональный (многоголосый закадровый), профессиональный (двухголосый закадровый), авторский (одноголосый закадровый)


Кодек: h.264
Качество: BDRip-AVC
Видео: 2819 Кбит/с, 1024x552, 23.976 кадр/с

Звук:
• №1: Русский (АС3, 6 ch, 384 Кбит/с) Профессиональный многоголосый [R5]
• №2: Русский (АС3, 2 ch, 192 Кбит/с) Профессиональный многоголосый [РТР/РЕН-ТВ]
• №3: Русский (АС3, 6 ch, 384 Кбит/с) Авторский одноголосый [Вартан Дохалов]
• №4: Английский (АС3, 6 ch, 384 Кбит/с)
Отдельно:
• №5: Русский (АС3, 2 ch, 192 Кбит/с) Профессиональный двухголосый [Премьер-Видео, VHS]
• №6: Русский (АС3, 2 ch, 192 Кбит/с) Авторский одноголосый [Александр Марченко]
• №7: Украинский (АС3, 2 ch, 192 Кбит/с) Профессиональный двухголосый [Канал "2+2"]

Субтитры: Русские, английские

----------------------------------------------------------------------
x264 [info]: frame I:1333 Avg QP:16.62 size: 71863
x264 [info]: frame P:36422 Avg QP:19.61 size: 27988
x264 [info]: frame B:119070 Avg QP:21.04 size: 9968
----------------------------------------------------------------------

Полное имя : Lock.Up.1989.x264.BDRip.(AVC).0ptimus.mkv
Формат : Matroska
Версия формата : Version 4 / Version 2
Размер файла : 3,17 Гбайт
Продолжительность : 1 ч. 48 м.
Общий поток : 4164 Кбит/сек
Название фильма : Тюряга (Взаперти) | Lock up [1989] -=BDRip (AVC) by 0ptimus=-
Дата кодирования : UTC 2013-10-08 12:11:46
Программа кодирования : mkvmerge v6.1.0 ('Old Devil') built on Mar 2 2013 14:32:37
Библиотека кодирования : libebml v1.3.0 + libmatroska v1.4.0

Видео
Идентификатор : 1
Формат : AVC
Формат/Информация : Advanced Video Codec
Профиль формата : High@L4.1
Параметр CABAC формата : Да
Параметр ReFrames формата : 9 кадров
Идентификатор кодека : V_MPEG4/ISO/AVC
Продолжительность : 1 ч. 48 м.
Битрейт : 2819 Кбит/сек
Ширина : 1024 пикселя
Высота : 552 пикселя
Соотношение сторон : 1,855
Частота кадров : 24,000 кадра/сек
Цветовое пространство : YUV
Субдискретизация насыщенности : 4:2:0
Битовая глубина : 8 бит
Тип развёртки : Прогрессивная
Бит/(Пиксели*Кадры) : 0.208
Размер потока : 2,08 Гбайт (66%)
Заголовок : Rip by 0ptimus
Библиотека кодирования : x264 core 133 r2334 a3ac64b
Настройки программы : cabac=1 / ref=9 / deblock=1:-3:-3 / analyse=0x3:0x113 / me=umh / subme=11 / psy=1 / psy_rd=1.00:0.20 / mixed_ref=1 / me_range=48 / chroma_me=1 / trellis=2 / 8x8dct=1 / cqm=0 / deadzone=21,11 / fast_pskip=0 / chroma_qp_offset=-3 / threads=4 / lookahead_threads=1 / sliced_threads=0 / nr=0 / decimate=0 / interlaced=0 / bluray_compat=0 / constrained_intra=0 / bframes=8 / b_pyramid=2 / b_adapt=2 / b_bias=0 / direct=3 / weightb=1 / open_gop=0 / weightp=2 / keyint=240 / keyint_min=24 / scenecut=40 / intra_refresh=0 / rc_lookahead=40 / rc=2pass / mbtree=0 / bitrate=2819 / ratetol=1.0 / qcomp=0.60 / qpmin=0 / qpmax=69 / qpstep=4 / cplxblur=20.0 / qblur=0.5 / vbv_maxrate=50000 / vbv_bufsize=50000 / nal_hrd=none / ip_ratio=1.40 / pb_ratio=1.30 / aq=1:1.00
Язык : English

Аудио #1
Идентификатор : 2
Формат : AC-3
Формат/Информация : Audio Coding 3
Расширение режима : CM (complete main)
Идентификатор кодека : A_AC3
Продолжительность : 1 ч. 48 м.
Вид битрейта : Постоянный
Битрейт : 384 Кбит/сек
Каналы : 6 каналов
Расположение каналов : Front: L C R, Side: L R, LFE
Частота : 48,0 КГц
Битовая глубина : 16 бит
Метод сжатия : С потерями
Размер потока : 299 Мбайт (9%)
Заголовок : Многоголосый закадровый [R5] AC3 5.1 @ 384 kbps
Язык : Russian

Аудио #2
Идентификатор : 3
Формат : AC-3
Формат/Информация : Audio Coding 3
Расширение режима : CM (complete main)
Идентификатор кодека : A_AC3
Продолжительность : 1 ч. 48 м.
Вид битрейта : Постоянный
Битрейт : 192 Кбит/сек
Каналы : 2 канала
Расположение каналов : Front: L R
Частота : 48,0 КГц
Битовая глубина : 16 бит
Метод сжатия : С потерями
Размер потока : 150 Мбайт (5%)
Заголовок : Многоголосый закадровый [РТР/РЕН-ТВ] AC3 2.0 @ 192 kbps
Язык : Russian

Аудио #3
Идентификатор : 4
Формат : AC-3
Формат/Информация : Audio Coding 3
Расширение режима : CM (complete main)
Идентификатор кодека : A_AC3
Продолжительность : 1 ч. 48 м.
Вид битрейта : Постоянный
Битрейт : 384 Кбит/сек
Каналы : 6 каналов
Расположение каналов : Front: L C R, Side: L R, LFE
Частота : 48,0 КГц
Битовая глубина : 16 бит
Метод сжатия : С потерями
Размер потока : 299 Мбайт (9%)
Заголовок : Авторский [Вартан Дохалов] AC3 2.0 @ 192 kbps
Язык : Russian

Аудио #4
Идентификатор : 5
Формат : AC-3
Формат/Информация : Audio Coding 3
Расширение режима : CM (complete main)
Идентификатор кодека : A_AC3
Продолжительность : 1 ч. 48 м.
Вид битрейта : Постоянный
Битрейт : 384 Кбит/сек
Каналы : 6 каналов
Расположение каналов : Front: L C R, Side: L R, LFE
Частота : 48,0 КГц
Битовая глубина : 16 бит
Метод сжатия : С потерями
Задержка видео : 625 мс.
Размер потока : 299 Мбайт (9%)
Заголовок : AC3 5.1 @ 384 kbps
Язык : English

Текст #1
Идентификатор : 6
Формат : UTF-8
Идентификатор кодека : S_TEXT/UTF8
Идентификатор кодека/Информация : UTF-8 Plain Text
Язык : Russian

Текст #2
Идентификатор : 7
Формат : UTF-8
Идентификатор кодека : S_TEXT/UTF8
Идентификатор кодека/Информация : UTF-8 Plain Text
Язык : English

Меню
00:00:00.000 : en:Lock Up
00:08:24.458 : en:For Luck
00:18:57.416 : en:"I Was Framed"
00:26:19.500 : en:Being Transferred
00:41:08.000 : en:Welcome to Gateway
00:54:46.125 : en:Punishment
01:01:49.333 : en:Delousing Chamber
01:08:04.166 : en:Our Rules
01:15:34.083 : en:Don't Trust Anybody
01:23:22.708 : en:No Way
01:35:32.333 : en:Locked In
01:44:05.583 : en:Deep-Fried Dallas




Релиз от:
загрузка...
Правила, инструкции, FAQ!!!
Торрент  Добавлен [08 окт 2013, 16:55] Скачать торрент
Скачать торрент
[ Размер 19.18 КБ / Просмотров 7 ]

Статус  
 
Размер  3.6 ГБ
Приватный: Нет (DHT включён)
.torrent скачан  1
Как залить торрент? | Как скачать Torrent? | Как смотреть и слушать онлайн?  


     Отправить личное сообщение
   
Страница 1 из 1
Показать сообщения за:  Поле сортировки  
Начать новую тему Ответить на тему

   Похожие торренты   Автор   Ответы   Просмотры   Последнее сообщение 
В этой теме нет новых непрочитанных сообщений. Скачать торрент Взаперти / Тюряга / Lock up (1989) HDRip

в форуме Боевики, Размер: 744.77 МБ, Здоровье: 100%

Anonymous

0
1|0

44
0

10 фев 2014, 08:50

Anonymous Перейти к последнему сообщению

В этой теме нет новых непрочитанных сообщений. Скачать торрент Проверен [480x360] Карты, деньги и два ствола / Lock, Stock & Two Smoking Barrels (1998) BDRip

в форуме Видео для смартфонов и КПК, Размер: 686.7 МБ, Здоровье: 50%

Anonymous

0
1|2

40
0

25 окт 2014, 23:29

Anonymous Перейти к последнему сообщению

В этой теме нет новых непрочитанных сообщений. Скачать торрент Проверен Джордж Бейкер - Тюряга [1994, DOC]

в форуме Детективы и Боевики, Размер: 5.26 МБ, Здоровье: 100%

Anonymous

0
1|0

0
0

08 сен 2016, 21:07

Anonymous Перейти к последнему сообщению

В этой теме нет новых непрочитанных сообщений. Скачать торрент Проверен [iPad] Карты, деньги, два ствола / Lock, Stock and Two Smoking Barrels (Гай Ричи / Guy Ritchie) [1998, Великобритания, криминал, комедия, BDRip] MVO + 2xAVO Sub Rus, eng + Original Eng

в форуме Фильмы для iPod, iPhone, iPad, Размер: 2.63 ГБ, Здоровье: 100%

Гость

0
30|10

33
2

12 май 2015, 00:08

Гость Перейти к последнему сообщению

В этой теме нет новых непрочитанных сообщений. Скачать торрент Взаперти / Inside (Мишель Жете / Michel Jetté) [2002 г., Драма, SATRip]

в форуме Драмы, Мелодрамы, Размер: 1.34 ГБ, Здоровье: 100%

Anonymous

0
1|0

35
0

24 апр 2014, 14:08

Anonymous Перейти к последнему сообщению



Сейчас этот форум просматривают: нет зарегистрированных пользователей и гости: 1


Вы не можете начинать темы
Вы не можете отвечать на сообщения
Вы не можете редактировать свои сообщения
Вы не можете удалять свои сообщения
Вы не можете добавлять вложения

Перейти:  

!ВНИМАНИЕ!
 Ресурс не предоставляет электронные версии произведений, а занимается лишь коллекционированием и каталогизацией ссылок, присылаемых и публикуемых на форуме нашими читателями. Если вы являетесь правообладателем какого-либо представленного материала и не желаете чтобы ссылка на него находилась в нашем каталоге, свяжитесь с нами и мы незамедлительно удалим её. Файлы для обмена на трекере предоставлены пользователями сайта, и администрация не несёт ответственности за их содержание. Просьба не заливать файлы, защищенные авторскими правами, а также файлы нелегального содержания!