На всех торрентах на трекере установлена скидка на скачивание в размере 100 процентов(а).
 Возможность скачивания торрента НЕ зависит от ограничений при низком ратио, низком аплоаде, требуемом ратио или требуемом аплоаде.


Начать новую тему Ответить на тему
Пред. тема | След. тема 
Автор
Сообщение

СообщениеДобавлено: 08 окт 2013, 11:43 

Сорванцы / Les Gamins (2013) BDRip

Год выпуска: 2013
Производство: Франция | Légende Films, PeopleForCinema Productions, Gaumont
Жанр: Комедия
Перевод: Одноголосый закадровый, любительский
Озвучка / Автор перевода: (Андрей Бочаров)
Субтитры: Вшитые отключаемые
Язык субтитров: Английский (Full), Французкий (Forced)
Дата мировой премьеры: 17 апреля 2013 (Франция)
Продюсер: Ален Голдман, Саймон Истолэйнен, Катрин Морисс,
Актеры: Ален Шаба, Макс Бублиль, Сандрин Киберлейн, Мелани Бернье, Ари Элмале, Элиза Седнауи, Элбан Ленуар, Франсуа Дюнойе, Николя Бриансон, Мелюзина Маянс, Жан-Филипп Пюмартен, Грегуар Бонне, Себастьен Кастро, Томас Соливерес
Описание фильма:
Жильберу уже пятьдесят лет, из которых тридцать он женат на Сюзанне, немного занудной дамочке, помешанной на здоровом питании. Они готовятся к встрече с Томасом, женихом своей дочери Лолы. Но Жильбера совершенно не радует предстоящая свадьба. Ему скучно, он разочарован в себе и в своей жизни. Жильбер уверен, что в его нынешнем унылом существовании виновата... Сюзанна! Ведь если бы он не женился, то жизнь его была бы совсем другой - яркой и насыщенной. Жильбер уговаривает Томаса отказаться от свадьбы с Лолой и не повторять его ошибок. И вот, два великовозрастных дитяти, забыв о своих любимых женщинах, пускаются во все тяжкие...


Продолжительность: 01:37:28
Качество видео: BDRip 1080p

Видеокодек: MPEG-4 AVC/H.264
Битрейт видео: ~ 10000 Кбит/сек
Размер кадра: 1920 x 816 (2.353) at 24.000 fps : 0.266 Bits/Pixel
Аудио #1: AC3 384 Кбит/сек (2ch), 48,0 КГц, 16 бит [Русский, VO А.Бочаров]
Аудио #2: DTS 1509 Кбит/сек (6ch), 48,0 КГц, 16 бит [Французский]
Дополнительно: Сохранены оригинальные чаптеры как на Blu-ray
Релиз:
Код:
Код:
Уникальный идентификатор                 : 171251386671455253101137264922620371516 (0x80D5D13E8F59C160995512D6167CA23C)
Полное имя                               : H:\Сорванцы Les Gamins 2012 1080p FRA Blu-Ray AVC DTS-HD MA 5.1-Sookie\Sorvantsy.2013.L1.BDRip.1800p.NNM-CLUB.GIU.mkv
Формат                                   : Matroska
Версия формата                           : Version 2
Размер файла                             : 8,10 Гбайт
Продолжительность                        : 1 ч. 37 м.
Общий поток                              : 11,9 Мбит/сек
Название фильма                          : Sorvantsy.2013.L1.BDRip.1800p.NNM-CLUB.GIU
Дата кодирования                         : UTC 2013-10-07 15:27:50
Программа кодирования                    : mkvmerge v2.9.9 ('Tutu') built on Nov 25 2009 21:13:32
Библиотека кодирования                   : libebml v0.7.9 + libmatroska v0.8.1

Видео
Идентификатор                            : 1
Формат                                   : AVC
Формат/Информация                        : Advanced Video Codec
Профиль формата                          :
Параметр CABAC формата                   : Да
Параметр ReFrames формата                : 5 кадров
Идентификатор кодека                     : V_MPEG4/ISO/AVC
Продолжительность                        : 1 ч. 37 м.
Битрейт                                  : 10000 Кбит/сек
Ширина                                   : 1920 пикселей
Высота                                   : 816 пикселей
Соотношение сторон                       : 2,35:1
Режим частоты кадров                     : Постоянный
Частота кадров                           : 24,000 кадра/сек
Цветовое пространство                    : YUV
Субдискретизация насыщенности            : 4:2:0
Битовая глубина                          : 8 бит
Тип развёртки                            : Прогрессивная
Бит/(Пиксели*Кадры)                      : 0.266
Размер потока                            : 6,65 Гбайт (82%)
Заголовок                                : -=Release for NNM-CLUB.RU=-
Библиотека кодирования                   : x264 core 133 r2334 a3ac64b
Настройки программы                      : cabac=1 / ref=5 / deblock=1:-3:-3 / analyse=0x3:0x113 / me=umh / subme=10 / psy=1 / psy_rd=1.00:0.25 / mixed_ref=0 / me_range=32 / chroma_me=1 / trellis=2 / 8x8dct=1 / cqm=0 / deadzone=21,11 / fast_pskip=1 / chroma_qp_offset=-4 / threads=12 / lookahead_threads=2 / sliced_threads=0 / nr=0 / decimate=0 / interlaced=0 / bluray_compat=0 / constrained_intra=0 / bframes=7 / b_pyramid=2 / b_adapt=2 / b_bias=0 / direct=3 / weightb=1 / open_gop=0 / weightp=2 / keyint=240 / keyint_min=24 / scenecut=50 / intra_refresh=0 / rc_lookahead=40 / rc=2pass / mbtree=1 / bitrate=10000 / ratetol=1.0 / qcomp=0.70 / qpmin=0 / qpmax=69 / qpstep=4 / cplxblur=20.0 / qblur=0.5 / vbv_maxrate=62500 / vbv_bufsize=78125 / nal_hrd=none / ip_ratio=1.40 / aq=1:1.00
Язык                                     : French
Default                                  : Нет
Forced                                   : Нет

Аудио #1
Идентификатор                            : 2
Формат                                   : AC-3
Формат/Информация                        : Audio Coding 3
Расширение режима                        : CM (complete main)
Параметр Endianness формата              : Big
Идентификатор кодека                     : A_AC3
Продолжительность                        : 1 ч. 37 м.
Вид битрейта                             : Постоянный
Битрейт                                  : 384 Кбит/сек
Каналы                                   : 2 канала
Расположение каналов                     : Front: L R
Частота                                  : 48,0 КГц
Битовая глубина                          : 16 бит
Метод сжатия                             : С потерями
Размер потока                            : 268 Мбайт (3%)
Заголовок                                : AC3.384.Kbps (2ch) Russian (VO Андрей Бочаров)
Язык                                     : Russian
Default                                  : Да
Forced                                   : Нет

Аудио #2
Идентификатор                            : 3
Формат                                   : DTS
Формат/Информация                        : Digital Theater Systems
Режим                                    : 16
Параметр Endianness формата              : Big
Идентификатор кодека                     : A_DTS
Продолжительность                        : 1 ч. 37 м.
Вид битрейта                             : Постоянный
Битрейт                                  : 1509 Кбит/сек
Каналы                                   : 6 каналов
Расположение каналов                     : Front: L C R, Side: L R, LFE
Частота                                  : 48,0 КГц
Битовая глубина                          : 16 бит
Метод сжатия                             : С потерями
Размер потока                            : 1,03 Гбайт (13%)
Заголовок                                : DTS.1509.Kbps (6ch) French
Язык                                     : French
Default                                  : Нет
Forced                                   : Нет

Текст #1
Идентификатор                            : 4
Формат                                   : UTF-8
Идентификатор кодека                     : S_TEXT/UTF8
Идентификатор кодека/Информация          : UTF-8 Plain Text
Заголовок                                : English (Full)
Язык                                     : English
Default                                  : Нет
Forced                                   : Нет

Текст #2
Идентификатор                            : 5
Формат                                   : UTF-8
Идентификатор кодека                     : S_TEXT/UTF8
Идентификатор кодека/Информация          : UTF-8 Plain Text
Заголовок                                : French (Forced)
Язык                                     : French
Default                                  : Нет
Forced                                   : Нет

Меню
00:00:00.000                             : en:00:00:00.000
00:07:17.792                             : en:00:07:17.792
00:12:19.167                             : en:00:12:19.167
00:22:53.083                             : en:00:22:53.083
00:31:22.792                             : en:00:31:22.792
00:41:30.750                             : en:00:41:30.750
00:53:01.708                             : en:00:53:01.708
01:01:23.167                             : en:01:01:23.167
01:10:52.750                             : en:01:10:52.750
01:19:57.792                             : en:01:19:57.792
01:27:40.333                             : en:01:27:40.333
01:33:27.958                             : en:01:33:27.958

x264 [info]: profile High, level 4.1
x264 [info]: frame I:1054 Avg QP:12.87 size:194123
x264 [info]: frame P:33701 Avg QP:15.60 size: 90988
x264 [info]: frame B:105602 Avg QP:16.23 size: 38251
x264 [info]: consecutive B-frames: 3.3% 5.0% 12.8% 14.5% 14.9% 44.5% 4.2% 0.8%
Скриншоты:








Удалено по требованию правообладателя


     Отправить личное сообщение
   
Страница 1 из 1
Показать сообщения за:  Поле сортировки  
Начать новую тему Ответить на тему
   Похожие темы   Автор   Ответы   Просмотры   Последнее сообщение 
В этой теме нет новых непрочитанных сообщений. Скачать торрент Проверен Вложения Холостяки в отрыве / Сорванцы / Les Gamins / The Brats (2013) BDRip 1080p | P

в форуме 720p | 1080p, Размер: 7.78 ГБ, Здоровье: 100%

Anonymous

0
24|2

25
289

30 май 2014, 16:50

Anonymous Перейти к последнему сообщению

В этой теме нет новых непрочитанных сообщений. Скачать торрент Проверен Вложения Холостяки в отрыве / Сорванцы / Les Gamins / The Brats (2013) BDRip 720p | P

в форуме 720p | 1080p, Размер: 4.38 ГБ, Здоровье: 100%

Anonymous

0
37|2

31
317

30 май 2014, 16:48

Anonymous Перейти к последнему сообщению

В этой теме нет новых непрочитанных сообщений. Скачать торрент Проверен Вложения Холостяки в отрыве / Сорванцы / Les Gamins (2013) НDRip | P

в форуме Комедии, Размер: 1.36 ГБ, Здоровье: 0%

Anonymous

0
0|0

73
0

30 май 2014, 13:51

Anonymous Перейти к последнему сообщению

В этой теме нет новых непрочитанных сообщений. Скачать торрент Проверен Вложения Feuertanz Festival 2013 [2013, Folk Rock/Metal, BDRip 1080p]

в форуме Концерты (HD-Video), Размер: 9.84 ГБ, Здоровье: 100%

Anonymous

0
2|1

0
0

23 окт 2016, 13:38

Anonymous Перейти к последнему сообщению

В этой теме нет новых непрочитанных сообщений. Скачать торрент Проверен Вложения Mylene Farmer - Timeless 2013 Le Film (2013) BDRip 1080p

в форуме Концерты (HD-Video), Размер: 11.68 ГБ, Здоровье: 100%

Anonymous

0
25|2

135
46

19 май 2014, 18:48

Anonymous Перейти к последнему сообщению



Сейчас этот форум просматривают: нет зарегистрированных пользователей и гости: 1


Вы не можете начинать темы
Вы не можете отвечать на сообщения
Вы не можете редактировать свои сообщения
Вы не можете удалять свои сообщения
Вы не можете добавлять вложения

Перейти:  

!ВНИМАНИЕ!
 Ресурс не предоставляет электронные версии произведений, а занимается лишь коллекционированием и каталогизацией ссылок, присылаемых и публикуемых на форуме нашими читателями. Если вы являетесь правообладателем какого-либо представленного материала и не желаете чтобы ссылка на него находилась в нашем каталоге, свяжитесь с нами и мы незамедлительно удалим её. Файлы для обмена на трекере предоставлены пользователями сайта, и администрация не несёт ответственности за их содержание. Просьба не заливать файлы, защищенные авторскими правами, а также файлы нелегального содержания!