На всех торрентах на трекере установлена скидка на скачивание в размере 100 процентов(а).
 Возможность скачивания торрента НЕ зависит от ограничений при низком ратио, низком аплоаде, требуемом ратио или требуемом аплоаде.


Начать новую тему Ответить на тему
Статистика раздачи
Размер: 8.41 ГБ | Добавлен: 08 окт 2013, 09:18 | Скачали: 0
Сидеров: 0  [0 байт/сек]    Личеров: 0  [0 байт/сек]
Пред. тема | След. тема 

Автор
Сообщение

СообщениеДобавлено: 08 окт 2013, 09:18 

Название: Преисподняя / Инферно
Оригинальное название: Inferno
Год выхода: 1980
Жанр: Ужасы
Режиссер: Дарио Ардженто

В ролях: Ли МакКлоски, Айрин Миракл, Элеонора Джорджи, Дария Николоди, Саша Питоефф, Алида Валли, Вероника Лазар, Габриэле Лавиа, Фёдор Шаляпин мл., Леопольдо Мастеллони, Ания Пьерони, Джеймс Флитвуд, Розарио Ригутини, Райан Хиллиард, Паоло Паолони, Фульвио Мингоцци, Луиджи Лодоли, Родольфо Лоди, Дарио Ардженто
О фильме:
Молодая женщина случайно находит таинственный дневник, в котором находится разгадка тайны «Трех матерей». Эта ужасная тайна свято хранилась веками… Но теперь Зло вырвалось на свободу, накрыв собой полмира, от Рима до Нью-Йорка...


Страна: Италия, Produzioni Intersound
Продолжительность: 01:46:40
Перевод: Профессиональный многоголосый / Профессиональный двухголосый / Авторский одноголосый (Михалев) / Авторский одноголосый (Визгунов)

Кодек: H.264
Качество: BDRip 720p
Видео: MPEG-4 AVC, 8824 Кбит/с, 1280x688, 23.976 кадр/с
Звук: Русский, итальянский (AC3, 2 ch, 192 Кбит/с), английский (DTS, 6 ch, 1510 Кбит/с)
Субтитры: Английские

Полное имя : D:Раздачи_DInferno.1980.x264.BDRip.720p.NovaLan.mkv
Формат : Matroska
Версия формата : Version 4 / Version 2
Размер файла : 8,41 Гбайт
Продолжительность : 1 ч. 46 м.
Общий поток : 11,3 Мбит/сек
Название фильма : Inferno.1980.x264.BDRip.720p.NovaLan
Дата кодирования : UTC 2013-10-07 19:54:36
Программа кодирования : mkvmerge v6.4.1 ('Omega Point') built on Sep 16 2013 22:05:10
Библиотека кодирования : libebml v1.3.0 + libmatroska v1.4.1

Видео
Идентификатор : 1
Формат : AVC
Формат/Информация : Advanced Video Codec
Профиль формата : High@L4.1
Параметр CABAC формата : Да
Параметр ReFrames формата : 8 кадров
Идентификатор кодека : V_MPEG4/ISO/AVC
Продолжительность : 1 ч. 46 м.
Битрейт : 8824 Кбит/сек
Ширина : 1280 пикселей
Высота : 688 пикселей
Соотношение сторон : 1,85:1
Частота кадров : 23,976 кадра/сек
Цветовое пространство : YUV
Субдискретизация насыщенности : 4:2:0
Битовая глубина : 8 бит
Тип развёртки : Прогрессивная
Бит/(Пиксели*Кадры) : 0.418
Размер потока : 6,40 Гбайт (76%)
Заголовок : Sergei7721
Библиотека кодирования : x264 core 133 r2334 a3ac64b
Настройки программы : cabac=1 / ref=8 / deblock=1:-1:-1 / analyse=0x3:0x113 / me=umh / subme=10 / psy=1 / psy_rd=1.00:0.20 / mixed_ref=1 / me_range=32 / chroma_me=1 / trellis=2 / 8x8dct=1 / cqm=0 / deadzone=21,11 / fast_pskip=0 / chroma_qp_offset=-3 / threads=12 / lookahead_threads=1 / sliced_threads=0 / nr=0 / decimate=0 / interlaced=0 / bluray_compat=0 / constrained_intra=0 / bframes=6 / b_pyramid=2 / b_adapt=2 / b_bias=0 / direct=3 / weightb=1 / open_gop=0 / weightp=2 / keyint=240 / keyint_min=23 / scenecut=40 / intra_refresh=0 / rc_lookahead=40 / rc=2pass / mbtree=0 / bitrate=8824 / ratetol=1.0 / qcomp=0.60 / qpmin=0 / qpmax=69 / qpstep=4 / cplxblur=20.0 / qblur=0.5 / vbv_maxrate=50000 / vbv_bufsize=62500 / nal_hrd=none / ip_ratio=1.40 / pb_ratio=1.30 / aq=1:1.00
Язык : English
Default : Да
Forced : Нет

Аудио #1
Идентификатор : 2
Формат : AC-3
Формат/Информация : Audio Coding 3
Расширение режима : CM (complete main)
Параметр Endianness формата : Big
Идентификатор кодека : A_AC3
Продолжительность : 1 ч. 46 м.
Вид битрейта : Постоянный
Битрейт : 192 Кбит/сек
Каналы : 2 канала
Расположение каналов : Front: L R
Частота : 48,0 КГц
Битовая глубина : 16 бит
Метод сжатия : С потерями
Размер потока : 147 Мбайт (2%)
Язык : Russian
Default : Да
Forced : Нет

Аудио #2
Идентификатор : 3
Формат : AC-3
Формат/Информация : Audio Coding 3
Расширение режима : CM (complete main)
Параметр Endianness формата : Big
Идентификатор кодека : A_AC3
Продолжительность : 1 ч. 46 м.
Вид битрейта : Постоянный
Битрейт : 192 Кбит/сек
Каналы : 2 канала
Расположение каналов : Front: L R
Частота : 48,0 КГц
Битовая глубина : 16 бит
Метод сжатия : С потерями
Размер потока : 147 Мбайт (2%)
Язык : Russian
Default : Нет
Forced : Нет

Аудио #3
Идентификатор : 4
Формат : AC-3
Формат/Информация : Audio Coding 3
Расширение режима : CM (complete main)
Параметр Endianness формата : Big
Идентификатор кодека : A_AC3
Продолжительность : 1 ч. 46 м.
Вид битрейта : Постоянный
Битрейт : 192 Кбит/сек
Каналы : 2 канала
Расположение каналов : Front: L R
Частота : 48,0 КГц
Битовая глубина : 16 бит
Метод сжатия : С потерями
Размер потока : 147 Мбайт (2%)
Язык : Russian
Default : Нет
Forced : Нет

Аудио #4
Идентификатор : 5
Формат : AC-3
Формат/Информация : Audio Coding 3
Расширение режима : CM (complete main)
Параметр Endianness формата : Big
Идентификатор кодека : A_AC3
Продолжительность : 1 ч. 46 м.
Вид битрейта : Постоянный
Битрейт : 192 Кбит/сек
Каналы : 2 канала
Расположение каналов : Front: L R
Частота : 48,0 КГц
Битовая глубина : 16 бит
Метод сжатия : С потерями
Размер потока : 147 Мбайт (2%)
Язык : Russian
Default : Нет
Forced : Нет

Аудио #5
Идентификатор : 6
Формат : AC-3
Формат/Информация : Audio Coding 3
Расширение режима : CM (complete main)
Параметр Endianness формата : Big
Идентификатор кодека : A_AC3
Продолжительность : 1 ч. 46 м.
Вид битрейта : Постоянный
Битрейт : 192 Кбит/сек
Каналы : 2 канала
Расположение каналов : Front: L R
Частота : 48,0 КГц
Битовая глубина : 16 бит
Метод сжатия : С потерями
Размер потока : 147 Мбайт (2%)
Язык : Italian
Default : Нет
Forced : Нет

Аудио #6
Идентификатор : 7
Формат : DTS
Формат/Информация : Digital Theater Systems
Идентификатор кодека : A_DTS
Продолжительность : 1 ч. 46 м.
Вид битрейта : Постоянный
Битрейт : 1510 Кбит/сек
Каналы : 6 каналов
Расположение каналов : Front: L C R, Side: L R, LFE
Частота : 48,0 КГц
Битовая глубина : 24 бит
Метод сжатия : С потерями
Размер потока : 1,13 Гбайт (13%)
Язык : English
Default : Нет
Forced : Нет

Текст
Идентификатор : 8
Формат : UTF-8
Идентификатор кодека : S_TEXT/UTF8
Идентификатор кодека/Информация : UTF-8 Plain Text
Язык : English
Default : Да
Forced : Нет

Меню
00:00:00.000 : en:00:00:00.000
00:03:58.987 : en:00:03:58.987
00:07:54.557 : en:00:07:54.557
00:17:08.484 : en:00:17:08.484
00:21:27.411 : en:00:21:27.411
00:31:09.284 : en:00:31:09.284
00:39:51.639 : en:00:39:51.639
00:47:56.289 : en:00:47:56.289
00:56:11.909 : en:00:56:11.909
01:08:15.173 : en:01:08:15.173
01:13:48.631 : en:01:13:48.631
01:21:43.273 : en:01:21:43.273
01:26:17.212 : en:01:26:17.212
01:32:55.860 : en:01:32:55.860
01:40:00.077 : en:01:40:00.077
01:44:52.202 : en:01:44:52.202
01:46:35.805 : en:01:46:35.805

Релиз группы NovaLan
Автор релиза Sergei7721






Релиз от:
загрузка...
Правила, инструкции, FAQ!!!
Торрент  Добавлен [08 окт 2013, 09:18] Скачать торрент
Скачать торрент
[ Размер 42.62 КБ / Просмотров 12 ]

Статус  
 
Размер  8.41 ГБ
Приватный: Нет (DHT включён)
.torrent скачан  0
Как залить торрент? | Как скачать Torrent? | Как смотреть и слушать онлайн?  


     Отправить личное сообщение
   
Страница 1 из 1
Показать сообщения за:  Поле сортировки  
Начать новую тему Ответить на тему

   Похожие торренты   Автор   Ответы   Просмотры   Последнее сообщение 
В этой теме нет новых непрочитанных сообщений. Скачать торрент Проверен Инферно / Inferno (1999) BDRip 720p | P2, A3

в форуме 720p | 1080p, Размер: 6.77 ГБ, Здоровье: 100%

Гость

0
19|10

137
80

17 окт 2015, 18:27

Гость Перейти к последнему сообщению

В этой теме нет новых непрочитанных сообщений. Скачать торрент Инферно / Out of Inferno (2013) BDRip 720p | L1

в форуме 720p | 1080p, Размер: 5.6 ГБ, Здоровье: ???%

Anonymous

0
0|1

72
0

14 янв 2014, 07:31

Anonymous Перейти к последнему сообщению

В этой теме нет новых непрочитанных сообщений. Скачать торрент Инферно / Out of Inferno (2013) HDRip | L1

в форуме Драмы, Мелодрамы, Размер: 1.37 ГБ, Здоровье: 0%

Anonymous

0
0|0

163
0

14 янв 2014, 07:34

Anonymous Перейти к последнему сообщению

В этой теме нет новых непрочитанных сообщений. Скачать торрент Проверен Инферно / Inferno (1997) DVDRip

в форуме Боевики, Размер: 744.28 МБ, Здоровье: 100%

Гость

0
16|5

156
8

16 ноя 2015, 00:06

Гость Перейти к последнему сообщению

В этой теме нет новых непрочитанных сообщений. Скачать торрент Проверен Инферно в 3Д / Из преисподней / Out of Inferno 3D (Оксид Пан, Дэнни Пан / Oxide Pang Chun, Danny Pang) [2013, Катастрофа, Драма, BDrip-AVC] VO, Half OverUnder / Вертикальная анаморфная стереопара

в форуме HD-Video в 3D, Размер: 9.87 ГБ, Здоровье: 100%

Anonymous

0
56|19

117
0

10 июл 2014, 16:31

Anonymous Перейти к последнему сообщению



Сейчас этот форум просматривают: нет зарегистрированных пользователей и гости: 1


Вы не можете начинать темы
Вы не можете отвечать на сообщения
Вы не можете редактировать свои сообщения
Вы не можете удалять свои сообщения
Вы не можете добавлять вложения

Перейти:  

!ВНИМАНИЕ!
 Ресурс не предоставляет электронные версии произведений, а занимается лишь коллекционированием и каталогизацией ссылок, присылаемых и публикуемых на форуме нашими читателями. Если вы являетесь правообладателем какого-либо представленного материала и не желаете чтобы ссылка на него находилась в нашем каталоге, свяжитесь с нами и мы незамедлительно удалим её. Файлы для обмена на трекере предоставлены пользователями сайта, и администрация не несёт ответственности за их содержание. Просьба не заливать файлы, защищенные авторскими правами, а также файлы нелегального содержания!