На всех торрентах на трекере установлена скидка на скачивание в размере 100 процентов(а).
 Возможность скачивания торрента НЕ зависит от ограничений при низком ратио, низком аплоаде, требуемом ратио или требуемом аплоаде.


Начать новую тему Ответить на тему
Статистика раздачи
Размер: 7.93 ГБ | Добавлен: 07 окт 2013, 22:40 | Скачали: 0
Сидеров: 0  [0 байт/сек]    Личеров: 0  [0 байт/сек]
Пред. тема | След. тема 

Автор
Сообщение

СообщениеДобавлено: 07 окт 2013, 22:40 

Год выхода: 2008
Жанр: Ужасы, комедия
Страна: США
Режиссер: Гленн МакКвейд

В ролях: Доминик Монахэн, Рон Перлман, Ларри Фесенден, Энгус Скримм, Джон Спередакос, Эйлин Колган, Бренда Куни, Дэниэл Манче, Джоэль Гарлэнд, Джеймс Годвин

О фильме: Действие фильма происходит в Лондоне 18-го века. Главный герой картины — могильщик, который на пару с приятелем занимается продажей трупов доктору-аристократу.


Качество: BDRip 1080p
Видео: MPEG4-AVC, 1920x816, 23.976 fps, 11000 kbps
Аудио #1: Русский, AC3, 6 ch, 48 kHz, 448 kbps - профессиональный многоголосый закадровый;
Аудио #2: Русский, AC3, 6 ch, 48 kHz, 640 kbps - авторский одноголосый закадровый (Визгунов);
Аудио #3: Русский, AC3, 6 ch, 48 kHz, 640 kbps - авторский одноголосый закадровый (Иванов);
Аудио #4: Английский, AC3, 6 ch, 48 kHz, 640 kbps - оригинал.
Продолжительность: 01:24:45

Format : Matroska
Format version : Version 2
File size : 7.93 GiB
Duration : 1h 25mn
Overall bit rate : 13.4 Mbps
Encoded date : UTC 2013-10-07 14:51:10
Writing application : mkvmerge v6.2.0 ('Promised Land') built on Apr 28 2013 12:22:01
Writing library : libebml v1.3.0 + libmatroska v1.4.0

Video
ID : 1
Format : AVC
Format/Info : Advanced Video Codec
Format profile : High@L4.1
Format settings, CABAC : Yes
Format settings, ReFrames : 4 frames
Codec ID : V_MPEG4/ISO/AVC
Duration : 1h 25mn
Bit rate mode : Variable
Bit rate : 11.0 Mbps
Maximum bit rate : 14.0 Mbps
Width : 1 920 pixels
Height : 816 pixels
Display aspect ratio : 2.35:1
Frame rate : 23.976 fps
Color space : YUV
Chroma subsampling : 4:2:0
Bit depth : 8 bits
Scan type : Progressive
Bits/(Pixel*Frame) : 0.293
Stream size : 6.37 GiB (80%)
Writing library : x264 core 133 r2334 a3ac64b
Encoding settings : cabac=1 / ref=5 / deblock=1:-1:-1 / analyse=0x3:0x133 / me=tesa / subme=11 / psy=1 / psy_rd=1.00:0.15 / mixed_ref=1 / me_range=24 / chroma_me=1 / trellis=2 / 8x8dct=1 / cqm=0 / deadzone=21,11 / fast_pskip=0 / chroma_qp_offset=-3 / threads=12 / lookahead_threads=1 / sliced_threads=0 / slices=4 / nr=0 / decimate=1 / interlaced=0 / bluray_compat=1 / constrained_intra=0 / bframes=3 / b_pyramid=1 / b_adapt=1 / b_bias=0 / direct=3 / weightb=1 / open_gop=1 / weightp=1 / keyint=230 / keyint_min=1 / scenecut=40 / intra_refresh=0 / rc_lookahead=60 / rc=2pass / mbtree=1 / bitrate=10999 / ratetol=1.0 / qcomp=0.60 / qpmin=0 / qpmax=69 / qpstep=4 / cplxblur=20.0 / qblur=0.5 / vbv_maxrate=14000 / vbv_bufsize=11000 / nal_hrd=vbr / ip_ratio=1.40 / aq=1:1.00
Language : English

Audio #1
ID : 2
Format : AC-3
Format/Info : Audio Coding 3
Mode extension : CM (complete main)
Codec ID : A_AC3
Duration : 1h 25mn
Bit rate mode : Constant
Bit rate : 448 Kbps
Channel(s) : 6 channels
Channel positions : Front: L C R, Side: L R, LFE
Sampling rate : 48.0 KHz
Bit depth : 16 bits
Compression mode : Lossy
Stream size : 272 MiB (3%)
Title : Многоголосый
Language : Russian

Audio #2
ID : 3
Format : AC-3
Format/Info : Audio Coding 3
Mode extension : CM (complete main)
Codec ID : A_AC3
Duration : 1h 25mn
Bit rate mode : Constant
Bit rate : 640 Kbps
Channel(s) : 6 channels
Channel positions : Front: L C R, Side: L R, LFE
Sampling rate : 48.0 KHz
Bit depth : 16 bits
Compression mode : Lossy
Stream size : 389 MiB (5%)
Title : Авторский (Визгунов)
Language : Russian

Audio #3
ID : 4
Format : AC-3
Format/Info : Audio Coding 3
Mode extension : CM (complete main)
Codec ID : A_AC3
Duration : 1h 25mn
Bit rate mode : Constant
Bit rate : 640 Kbps
Channel(s) : 6 channels
Channel positions : Front: L C R, Side: L R, LFE
Sampling rate : 48.0 KHz
Bit depth : 16 bits
Compression mode : Lossy
Stream size : 389 MiB (5%)
Title : Авторский (Иванов)
Language : Russian

Audio #4
ID : 5
Format : AC-3
Format/Info : Audio Coding 3
Mode extension : CM (complete main)
Codec ID : A_AC3
Duration : 1h 25mn
Bit rate mode : Constant
Bit rate : 640 Kbps
Channel(s) : 6 channels
Channel positions : Front: L C R, Side: L R, LFE
Sampling rate : 48.0 KHz
Bit depth : 16 bits
Compression mode : Lossy
Stream size : 389 MiB (5%)
Title : Оригинал
Language : English

Text
ID : 6
Format : PGS
Muxing mode : zlib
Codec ID : S_HDMV/PGS
Codec ID/Info : The same subtitle format used on BDs/HD-DVDs
Title : Английские
Language : English

Menu
00:00:00.000 : en:00:00:00.000
00:04:00.240 : en:00:04:00.240
00:08:25.505 : en:00:08:25.505
00:14:09.974 : en:00:14:09.974
00:21:42.259 : en:00:21:42.259
00:27:34.361 : en:00:27:34.361
00:34:58.387 : en:00:34:58.387
00:39:39.085 : en:00:39:39.085
00:46:32.581 : en:00:46:32.581
00:53:00.218 : en:00:53:00.218
00:56:21.086 : en:00:56:21.086
01:03:48.783 : en:01:03:48.783
01:09:49.727 : en:01:09:49.727
01:15:30.776 : en:01:15:30.776
01:20:48.844 : en:01:20:48.844
загрузка...
Правила, инструкции, FAQ!!!
Торрент  Добавлен [07 окт 2013, 22:40] Скачать торрент
Скачать торрент
[ Размер 40.1 КБ / Просмотров 13 ]

Статус  
 
Размер  7.93 ГБ
Приватный: Нет (DHT включён)
.torrent скачан  0
Как залить торрент? | Как скачать Torrent? | Как смотреть и слушать онлайн?  


     Отправить личное сообщение
   
Страница 1 из 1
Показать сообщения за:  Поле сортировки  
Начать новую тему Ответить на тему

   Похожие торренты   Автор   Ответы   Просмотры   Последнее сообщение 
В этой теме нет новых непрочитанных сообщений. Скачать торрент Земля мертвых / Land of the Dead (Джордж А. Ромеро / George A. Romero) [2005, Ужасы, фантастика, триллер, BDRip] [Режиссёрская версия / Unrated Director's cut] Dub

в форуме Ужасы, Размер: 1.46 ГБ, Здоровье: 0%

Anonymous

0
0|0

46
0

22 апр 2014, 11:50

Anonymous Перейти к последнему сообщению

В этой теме нет новых непрочитанных сообщений. Скачать торрент Проверен День мертвецов / Day of the Dead (1985) BDRip 1080p | P

в форуме 720p | 1080p, Размер: 7.75 ГБ, Здоровье: 100%

Гость

0
65|60

58
53

08 июл 2015, 20:14

Гость Перейти к последнему сообщению

В этой теме нет новых непрочитанных сообщений. Скачать торрент Девять в списке мертвых / Nine Dead (2010) HDRip | Р

в форуме Ужасы, Размер: 1.45 ГБ, Здоровье: 0%

Anonymous

0
0|0

36
0

25 янв 2014, 18:59

Anonymous Перейти к последнему сообщению

В этой теме нет новых непрочитанных сообщений. Скачать торрент Проверен Гол живых мертвецов / Goal of the Dead (2014) BDRip 1080p | L1

в форуме 720p | 1080p, Размер: 8.9 ГБ, Здоровье: 100%

Anonymous

0
8|0

76
129

17 июн 2014, 21:50

Anonymous Перейти к последнему сообщению

В этой теме нет новых непрочитанных сообщений. Скачать торрент Проверен Мертвец идет / Dead Man Walking (1995) BDRip 1080p

в форуме 720p | 1080p, Размер: 10.55 ГБ, Здоровье: 100%

Anonymous

0
11|6

47
26

04 апр 2015, 14:07

Anonymous Перейти к последнему сообщению



Сейчас этот форум просматривают: нет зарегистрированных пользователей и гости: 2


Вы не можете начинать темы
Вы не можете отвечать на сообщения
Вы не можете редактировать свои сообщения
Вы не можете удалять свои сообщения
Вы не можете добавлять вложения

Перейти:  

!ВНИМАНИЕ!
 Ресурс не предоставляет электронные версии произведений, а занимается лишь коллекционированием и каталогизацией ссылок, присылаемых и публикуемых на форуме нашими читателями. Если вы являетесь правообладателем какого-либо представленного материала и не желаете чтобы ссылка на него находилась в нашем каталоге, свяжитесь с нами и мы незамедлительно удалим её. Файлы для обмена на трекере предоставлены пользователями сайта, и администрация не несёт ответственности за их содержание. Просьба не заливать файлы, защищенные авторскими правами, а также файлы нелегального содержания!