На всех торрентах на трекере установлена скидка на скачивание в размере 100 процентов(а).
 Возможность скачивания торрента НЕ зависит от ограничений при низком ратио, низком аплоаде, требуемом ратио или требуемом аплоаде.


Начать новую тему Ответить на тему
Статистика раздачи
Размер: 13.38 ГБ | Добавлен: 07 окт 2013, 09:49 | Скачали: 0
Сидеров: 0  [0 байт/сек]    Личеров: 0  [0 байт/сек]
Пред. тема | След. тема 

Автор
Сообщение

СообщениеДобавлено: 07 окт 2013, 09:49 



Информация о фильме
Русское название: Джеки Браун
Оригинальное название: Jackie Brown
Год выхода: 1997
Жанр: Криминальная комедия
Режиссер: Квентин Тарантино
Выпущено: США, A Band Apart, Lawrence Bender Productions, Miramax Films
Продолжительность: 02:34:22
Перевод: Профессиональный (многоголосый, закадровый), Профессиональный (двухголосый, закадровый), Авторский одноголосый, Оригинальнал
В ролях: Пэм Гриер, Сэмюэл Л. Джексон, Роберт Форстер, Бриджит Фонда, Майкл Китон, Роберт Де Ниро, Майкл Боуэн, Крис Такер, Лиза Гэй Хэмилтон, Томми Листер, Хэтти Уинстон, Сид Хэйг, Эйми Грэм, Эллис Уильямс, Танджи Амброзе, Ти’Кейя Кристел Кеймэ, Венесса Валентино, Диана Урибе, Рени Келли, Элизабет МакИнерни, Коллин Мэйн, Лаура Лавлэйс, Кристин Лайдон, Джулия Эрвин, Джульетт Лонг, Мишель Беруб, Джиллиан Илиана Уотерс, Кэндис Бриcе, Гари Манн, Хельмут Бергер, Дениз Кросби, Тони Кертис, Мариза Мелл, Глендон Рич, Мэри Энн Шмидт, Квентин Тарантино


Сюжет фильма
Фильм поставлен по роману Элмора Леонарда.
Героиня по имени Джекки Браун работает стюардессой и подрабатывает контрабандой наличных денег в страну для торговца оружием. Все складывается отлично до того момента, пока ее не арестовывают федеральные агенты. На свободе она может остаться, только «заложив» торговца. Рисковая девушка принимает решение и «пол-лимона зеленых» присвоить, и от торговца оружием избавиться. А вот останется ли она сама в живых?…


Файл
Качество: BDRip 1080p (исходник Blu-ray Disc)
Видео: 1920x1038, ~9 600 Кбит/сек, 23,976 кадр/сек, AVC, x264, High@L4.1, 1.85:1, 0.201 Бит/[Пиксели*Кадры], 2pass
Аудио 1: AC-3, 448 Кбит/сек, 6 канала(ов), 48,0 КГц - Профессиональный (многоголосый, закадровый) West Video
Аудио 2: AC-3, 448 Кбит/сек, 6 канала(ов), 48,0 КГц - Профессиональный (двухголосый, закадровый) Супербит
Аудио 3: AC-3, 192 Кбит/сек, 2 канала(ов), 48,0 КГц - Профессиональный (двухголосый, закадровый) Премьер Мультимедиа
Аудио 4: AC-3, 448 Кбит/сек, 6 канала(ов), 48,0 КГц - Авторский одноголосый А.Гаврилов
Аудио 5: AC-3, 448 Кбит/сек, 6 канала(ов), 48,0 КГц - Авторский одноголосый Ю.Живов
Аудио 5: AC-3, 384 Кбит/сек, 6 канала(ов), 48,0 КГц - Авторский одноголосый М.Чадов
Аудио 6: AC-3, 448 Кбит/сек, 6 канала(ов), 48,0 КГц - English
Субтитры: Русские | Английские
Чаптеры: есть | подписанные


Автор Рипа:








Format : Matroska
Format version : Version 2
File size : 13.4 GiB
Duration : 2h 34mn
Overall bit rate : 12.4 Mbps
Movie name : Джеки Браун.1997.BDRip.1080p.[denis100]
Encoded date : UTC 2013-10-07 05:39:46
Writing application : mkvmerge v5.8.0 ('No Sleep / Pillow') built on Sep 2 2012 15:37:04
Writing library : libebml v1.2.3 + libmatroska v1.3.0

Video
ID : 1
Format : AVC
Format/Info : Advanced Video Codec
Format profile : High@L4.1
Format settings, CABAC : Yes
Format settings, ReFrames : 4 frames
Muxing mode : Header stripping
Codec ID : V_MPEG4/ISO/AVC
Duration : 2h 34mn
Bit rate : 9 600 Kbps
Width : 1 920 pixels
Height : 1 038 pixels
Display aspect ratio : 1.85:1
Frame rate mode : Constant
Frame rate : 23.976 fps
Color space : YUV
Chroma subsampling : 4:2:0
Bit depth : 8 bits
Scan type : Progressive
Bits/(Pixel*Frame) : 0.201
Stream size : 10.1 GiB (75%)
Title : Джеки Браун.1997.BDRip.1080p Release _denis_100
Writing library : x264 core 138 r2358 9e941d1
Encoding settings : cabac=1 / ref=4 / deblock=1:-3:-3 / analyse=0x3:0x133 / me=umh / subme=11 / psy=1 / psy_rd=1.00:0.10 / mixed_ref=1 / me_range=32 / chroma_me=1 / trellis=2 / 8x8dct=1 / cqm=0 / deadzone=21,11 / fast_pskip=0 / chroma_qp_offset=-3 / threads=6 / lookahead_threads=1 / sliced_threads=0 / nr=0 / decimate=0 / interlaced=0 / bluray_compat=0 / constrained_intra=0 / bframes=7 / b_pyramid=2 / b_adapt=2 / b_bias=0 / direct=3 / weightb=1 / open_gop=0 / weightp=2 / keyint=240 / keyint_min=23 / scenecut=40 / intra_refresh=0 / rc=2pass / mbtree=0 / bitrate=9600 / ratetol=2.0 / qcomp=0.60 / qpmin=0 / qpmax=69 / qpstep=4 / cplxblur=20.0 / qblur=0.5 / ip_ratio=1.40 / pb_ratio=1.30 / aq=1:0.80
Language : English
Default : Yes
Forced : No

Audio #1
ID : 2
Format : AC-3
Format/Info : Audio Coding 3
Mode extension : CM (complete main)
Format settings, Endianness : Big
Muxing mode : Header stripping
Codec ID : A_AC3
Duration : 2h 34mn
Bit rate mode : Constant
Bit rate : 448 Kbps
Channel count : 6 channels
Channel positions : Front: L C R, Side: L R, LFE
Sampling rate : 48.0 KHz
Bit depth : 16 bits
Compression mode : Lossy
Stream size : 495 MiB (4%)
Title : Многоголосый закадровый, West Video
Language : Russian
Default : No
Forced : No

Audio #2
ID : 3
Format : AC-3
Format/Info : Audio Coding 3
Mode extension : CM (complete main)
Format settings, Endianness : Big
Muxing mode : Header stripping
Codec ID : A_AC3
Duration : 2h 34mn
Bit rate mode : Constant
Bit rate : 448 Kbps
Channel count : 6 channels
Channel positions : Front: L C R, Side: L R, LFE
Sampling rate : 48.0 KHz
Bit depth : 16 bits
Compression mode : Lossy
Stream size : 495 MiB (4%)
Title : Двухголосый закадровый, Супербит
Language : Russian
Default : No
Forced : No

Audio #3
ID : 4
Format : AC-3
Format/Info : Audio Coding 3
Mode extension : CM (complete main)
Format settings, Endianness : Big
Muxing mode : Header stripping
Codec ID : A_AC3
Duration : 2h 34mn
Bit rate mode : Constant
Bit rate : 192 Kbps
Channel count : 2 channels
Channel positions : Front: L R
Sampling rate : 48.0 KHz
Bit depth : 16 bits
Compression mode : Lossy
Stream size : 212 MiB (2%)
Title : Двухголосый закадровый, Премьер Мультимедия
Language : Russian
Default : No
Forced : No

Audio #4
ID : 5
Format : AC-3
Format/Info : Audio Coding 3
Mode extension : CM (complete main)
Format settings, Endianness : Big
Muxing mode : Header stripping
Codec ID : A_AC3
Duration : 2h 34mn
Bit rate mode : Constant
Bit rate : 448 Kbps
Channel count : 6 channels
Channel positions : Front: L C R, Side: L R, LFE
Sampling rate : 48.0 KHz
Bit depth : 16 bits
Compression mode : Lossy
Stream size : 495 MiB (4%)
Title : Одноголосый закадровый, А. Гаврилов
Language : Russian
Default : No
Forced : No

Audio #5
ID : 6
Format : AC-3
Format/Info : Audio Coding 3
Mode extension : CM (complete main)
Format settings, Endianness : Big
Muxing mode : Header stripping
Codec ID : A_AC3
Duration : 2h 34mn
Bit rate mode : Constant
Bit rate : 448 Kbps
Channel count : 6 channels
Channel positions : Front: L C R, Side: L R, LFE
Sampling rate : 48.0 KHz
Bit depth : 16 bits
Compression mode : Lossy
Stream size : 495 MiB (4%)
Title : Одноголосый закадровый, Ю. Живов
Language : Russian
Default : No
Forced : No

Audio #6
ID : 7
Format : AC-3
Format/Info : Audio Coding 3
Mode extension : CM (complete main)
Format settings, Endianness : Big
Muxing mode : Header stripping
Codec ID : A_AC3
Duration : 2h 34mn
Bit rate mode : Constant
Bit rate : 384 Kbps
Channel count : 6 channels
Channel positions : Front: L C R, Side: L R, LFE
Sampling rate : 48.0 KHz
Bit depth : 16 bits
Compression mode : Lossy
Stream size : 424 MiB (3%)
Title : Одноголосый закадровый, М. Чадов
Language : Russian
Default : No
Forced : No

Audio #7
ID : 8
Format : AC-3
Format/Info : Audio Coding 3
Mode extension : CM (complete main)
Format settings, Endianness : Big
Muxing mode : Header stripping
Codec ID : A_AC3
Duration : 2h 34mn
Bit rate mode : Constant
Bit rate : 448 Kbps
Channel count : 6 channels
Channel positions : Front: L C R, Side: L R, LFE
Sampling rate : 48.0 KHz
Bit depth : 16 bits
Compression mode : Lossy
Stream size : 495 MiB (4%)
Title : English
Language : English
Default : No
Forced : No

Text #1
ID : 9
Format : UTF-8
Codec ID : S_TEXT/UTF8
Codec ID/Info : UTF-8 Plain Text
Title : Русские
Language : Russian
Default : No
Forced : No

Text #2
ID : 10
Format : UTF-8
Codec ID : S_TEXT/UTF8
Codec ID/Info : UTF-8 Plain Text
Title : английские
Language : English
Default : No
Forced : No

Menu
00:00:00.000 : en:Opening Title Sequence
00:10:32.131 : en:Beaumont and His Benefactor
00:23:35.664 : en:For Your Eyes Only
00:35:41.264 : en:I Didn't Hear You Wash Your Hands
00:39:43.381 : en:Natural High
00:46:03.052 : en:Click
01:00:19.533 : en:She Wants to Make a Deal
01:13:09.343 : en:She's My Fine Little Surfer Girl
01:24:15.133 : en:Sheronda
01:31:27.232 : en:Red Dress
01:38:46.587 : en:Money Exchange Jackie
01:54:03.336 : en:Money Exchange Max
02:06:02.972 : en:Nicolette's Interrogation
02:18:26.131 : en:I Didn't Know You Liked the Delfonics
02:24:27.742 : en:The Kiss
02:30:12.670 : en:End Credits

загрузка...
Правила, инструкции, FAQ!!!
Торрент  Добавлен [07 окт 2013, 09:49] Скачать торрент
Скачать торрент
[ Размер 67.34 КБ / Просмотров 10 ]

Статус  
 
Размер  13.38 ГБ
Приватный: Нет (DHT включён)
.torrent скачан  0
Как залить торрент? | Как скачать Torrent? | Как смотреть и слушать онлайн?  


     Отправить личное сообщение
   
Страница 1 из 1
Показать сообщения за:  Поле сортировки  
Начать новую тему Ответить на тему

   Похожие торренты   Автор   Ответы   Просмотры   Последнее сообщение 
В этой теме нет новых непрочитанных сообщений. Скачать торрент Джеки Браун / Jackie Brown (Квентин Тарантино / Quentin Tarantino) [1997 г., Триллер, драма, криминал, BDRip] [720p]

в форуме 720p | 1080p, Размер: 8.84 ГБ, Здоровье: 100%

Anonymous

0
19|6

66
0

25 фев 2014, 22:41

Anonymous Перейти к последнему сообщению

В этой теме нет новых непрочитанных сообщений. Скачать торрент Джеки Чан: Фильмография / Jackie Chan: Filmography (1966 - 2011) VHSRip, DVDRip, HDRip, BDRip

в форуме Антологии, Размер: 156.69 ГБ, Здоровье: 100%

Anonymous

0
68|32

262
1

22 фев 2014, 23:56

Anonymous Перейти к последнему сообщению

В этой теме нет новых непрочитанных сообщений. Скачать торрент Проверен Джеки Браун | После вечеринки (2015) [PDF, DJVU]

в форуме Классика, современная проза и поэзия, Размер: 11.61 МБ, Здоровье: 100%

Anonymous

0
3|2

69
1

16 янв 2016, 03:35

Anonymous Перейти к последнему сообщению

В этой теме нет новых непрочитанных сообщений. Скачать торрент [VIDEO] Проект А / Операция А / Project A / «A» gai waak (Джеки Чан / Jackie Chan) [1983, боевик, комедия, HDRip] [MP4, 640x] DVO

в форуме Видео для смартфонов и КПК, Размер: 911.69 МБ, Здоровье: 100%

Anonymous

0
10|3

62
0

30 янв 2014, 06:46

Anonymous Перейти к последнему сообщению

В этой теме нет новых непрочитанных сообщений. Скачать торрент Проверен Dan Brown / Дэн Браун - Сборник произведений [1998-2009, FB2,TXT,RTF, RUS]

в форуме Приключения, Размер: 19.44 МБ, Здоровье: 100%

Anonymous

0
1969|17

136
9

25 июн 2016, 10:32

Anonymous Перейти к последнему сообщению



Сейчас этот форум просматривают: нет зарегистрированных пользователей и гости: 1


Вы не можете начинать темы
Вы не можете отвечать на сообщения
Вы не можете редактировать свои сообщения
Вы не можете удалять свои сообщения
Вы не можете добавлять вложения

Перейти:  

!ВНИМАНИЕ!
 Ресурс не предоставляет электронные версии произведений, а занимается лишь коллекционированием и каталогизацией ссылок, присылаемых и публикуемых на форуме нашими читателями. Если вы являетесь правообладателем какого-либо представленного материала и не желаете чтобы ссылка на него находилась в нашем каталоге, свяжитесь с нами и мы незамедлительно удалим её. Файлы для обмена на трекере предоставлены пользователями сайта, и администрация не несёт ответственности за их содержание. Просьба не заливать файлы, защищенные авторскими правами, а также файлы нелегального содержания!