На всех торрентах на трекере установлена скидка на скачивание в размере 100 процентов(а).
 Возможность скачивания торрента НЕ зависит от ограничений при низком ратио, низком аплоаде, требуемом ратио или требуемом аплоаде.


Начать новую тему Ответить на тему
Статистика раздачи
Размер: 8.01 ГБ | Добавлен: 06 окт 2013, 23:14 | Скачали: 1
Сидеров: 0  [0 байт/сек]    Личеров: 0  [0 байт/сек]
Пред. тема | След. тема 

Автор
Сообщение

СообщениеДобавлено: 06 окт 2013, 23:14 

Информация о фильме
    Русское название: Самолетом, поездом, машиной
    Оригинальное название: Planes, Trains & Automobiles
    Год выхода: 1987
    Жанр: Драма, комедия
    Режиссер: Джон Хьюз
    Выпущено: США
    Продолжительность: 01:32:28
    Перевод: Профессиональный (многоголосый закадровый), Авторский одноголосый (А. Михалев)
    В ролях: Стив Мартин, Джон Кэнди, Лайла Робинс, Майкл МакКин, Кевин Бейкон, Дилан Бейкер, Кэрол Брюс, Оливия Бернетт, Диана Дуглас, Мартин Ферреро


Сюжет фильма
    Все, что было нужно преуспевающему «рекламщику» Нилу Пэйджу, так это успеть домой ко Дню Благодарения. Ведь это так просто: купить билет на самолет, совершить комфортабельный полет до родного Чикаго и уже вечером сесть за праздничный стол со всей своей семьей.
    Но случилось так, что это оказалось чудовищно трудной задачей. Путь домой станет для Нила самым невероятным приключением всей его жизни!


Файл
    Качество: BDRip 1080p (исходник Blu-ray Remux)
    Видео: 1920x1080, 10990 Кбит/сек, 23,976 кадр/сек, AVC, x264, High@L4.1, 16:9, 0.221 Бит/[Пиксели*Кадры], 2pass
    Аудио 1: AC-3, 384 Кбит/сек, 6 канала(ов), 48,0 КГц - Многоголосый закадровый / Русский
    Аудио 2: AC-3, 384 Кбит/сек, 6 канала(ов), 48,0 КГц - Одноголосый (А. Михалев) / Русский
    Аудио 3: AC-3, 640 Кбит/сек, 6 канала(ов), 48,0 КГц - Оригинал / Английский
    Субтитры: Английские | Полные
    Чаптеры: Есть



Автор Рипа: Сообщество:



Format : Matroska
Format version : Version 2
File size : 8.01 GiB
Duration : 1h 32mn
Overall bit rate : 12.4 Mbps
Movie name : Самолетом, поездом, машиной.(1987).BDRip.1080p.[envy]
Encoded date : UTC 2013-10-06 13:15:16
Writing application : mkvmerge v5.8.0 ('No Sleep / Pillow') built on Sep 2 2012 15:37:04
Writing library : libebml v1.2.3 + libmatroska v1.3.0

Video
ID : 1
Format : AVC
Format/Info : Advanced Video Codec
Format profile : High@L4.1
Format settings, CABAC : Yes
Format settings, ReFrames : 4 frames
Codec ID : V_MPEG4/ISO/AVC
Duration : 1h 32mn
Bit rate : 11.0 Mbps
Width : 1 920 pixels
Height : 1 080 pixels
Display aspect ratio : 16:9
Frame rate mode : Constant
Frame rate : 23.976 fps
Color space : YUV
Chroma subsampling : 4:2:0
Bit depth : 8 bits
Scan type : Progressive
Bits/(Pixel*Frame) : 0.221
Stream size : 6.94 GiB (87%)
Title : Самолетом, поездом, машиной.(1987).BDRip.1080p.[envy]
Writing library : x264 core 138 r2358 9e941d1
Encoding settings : cabac=1 / ref=4 / deblock=1:-3:-3 / analyse=0x3:0x133 / me=umh / subme=11 / psy=1 / psy_rd=1.00:0.00 / mixed_ref=1 / me_range=32 / chroma_me=1 / trellis=2 / 8x8dct=1 / cqm=0 / deadzone=21,11 / fast_pskip=0 / chroma_qp_offset=-2 / threads=12 / lookahead_threads=1 / sliced_threads=0 / nr=0 / decimate=1 / interlaced=0 / bluray_compat=0 / constrained_intra=0 / bframes=6 / b_pyramid=2 / b_adapt=2 / b_bias=0 / direct=3 / weightb=1 / open_gop=0 / weightp=2 / keyint=240 / keyint_min=23 / scenecut=40 / intra_refresh=0 / rc=2pass / mbtree=0 / bitrate=10990 / ratetol=2.0 / qcomp=0.60 / qpmin=0 / qpmax=69 / qpstep=4 / cplxblur=20.0 / qblur=0.5 / ip_ratio=1.40 / pb_ratio=1.30 / aq=1:0.70
Language : English
Default : Yes
Forced : No

Audio #1
ID : 2
Format : AC-3
Format/Info : Audio Coding 3
Mode extension : CM (complete main)
Format settings, Endianness : Big
Codec ID : A_AC3
Duration : 1h 32mn
Bit rate mode : Constant
Bit rate : 384 Kbps
Channel count : 6 channels
Channel positions : Front: L C R, Side: L R, LFE
Sampling rate : 48.0 KHz
Bit depth : 16 bits
Compression mode : Lossy
Stream size : 254 MiB (3%)
Title : Многоголосый закадровый
Language : Russian
Default : Yes
Forced : No

Audio #2
ID : 3
Format : AC-3
Format/Info : Audio Coding 3
Mode extension : CM (complete main)
Format settings, Endianness : Big
Codec ID : A_AC3
Duration : 1h 32mn
Bit rate mode : Constant
Bit rate : 384 Kbps
Channel count : 6 channels
Channel positions : Front: L C R, Side: L R, LFE
Sampling rate : 48.0 KHz
Bit depth : 16 bits
Compression mode : Lossy
Stream size : 254 MiB (3%)
Title : А. Михалев
Language : Russian
Default : No
Forced : No

Audio #3
ID : 4
Format : AC-3
Format/Info : Audio Coding 3
Mode extension : CM (complete main)
Format settings, Endianness : Big
Codec ID : A_AC3
Duration : 1h 32mn
Bit rate mode : Constant
Bit rate : 640 Kbps
Channel count : 6 channels
Channel positions : Front: L C R, Side: L R, LFE
Sampling rate : 48.0 KHz
Bit depth : 16 bits
Compression mode : Lossy
Stream size : 423 MiB (5%)
Title : Оригинал
Language : English
Default : No
Forced : No

Text
ID : 5
Format : UTF-8
Codec ID : S_TEXT/UTF8
Codec ID/Info : UTF-8 Plain Text
Title : Full
Language : English
Default : No
Forced : No

Menu
00:00:00.000 : :Chapter 01
00:02:41.202 : :Chapter 02
00:07:09.262 : :Chapter 03
00:12:11.981 : :Chapter 04
00:15:01.859 : :Chapter 05
00:17:29.965 : :Chapter 06
00:20:10.083 : :Chapter 07
00:27:51.711 : :Chapter 08
00:32:16.935 : :Chapter 09
00:35:51.065 : :Chapter 10
00:39:21.359 : :Chapter 11
00:41:47.463 : :Chapter 12
00:43:11.839 : :Chapter 13
00:45:33.856 : :Chapter 14
00:49:45.816 : :Chapter 15
00:51:17.532 : :Chapter 16
00:55:32.912 : :Chapter 17
00:57:05.296 : :Chapter 18
00:59:17.470 : :Chapter 19
01:01:50.957 : :Chapter 20
01:06:49.046 : :Chapter 21
01:09:36.630 : :Chapter 22
01:15:13.383 : :Chapter 23
01:18:46.555 : :Chapter 24
01:20:30.700 : :Chapter 25
01:24:49.793 : :Chapter 26
01:27:04.552 : :Chapter 27

Внимание!
Звуковая дорожка от А. Михалев содержат нецензурные выражения!
загрузка...
Правила, инструкции, FAQ!!!
Торрент  Добавлен [06 окт 2013, 23:14] Скачать торрент
Скачать торрент
[ Размер 40.47 КБ / Просмотров 14 ]

Статус  
 
Размер  8.01 ГБ
Приватный: Нет (DHT включён)
.torrent скачан  1
Как залить торрент? | Как скачать Torrent? | Как смотреть и слушать онлайн?  


     Отправить личное сообщение
   
Страница 1 из 1
Показать сообщения за:  Поле сортировки  
Начать новую тему Ответить на тему

   Похожие торренты   Автор   Ответы   Просмотры   Последнее сообщение 
В этой теме нет новых непрочитанных сообщений. Скачать торрент Самолетом, поездом, машиной / Planes, Trains and Automobiles (1987) HDRip от New-Team

в форуме Комедии, Размер: 1.46 ГБ, Здоровье: 0%

Anonymous

0
0|0

30
0

25 дек 2013, 14:22

Anonymous Перейти к последнему сообщению

В этой теме нет новых непрочитанных сообщений. Скачать торрент Проверен Eric Clapton - Planes, Trains and Eric (2014) BDRip 1080p

в форуме Концерты (HD-Video), Размер: 12.34 ГБ, Здоровье: 100%

Гость

0
54|16

100
326

20 дек 2014, 22:55

Гость Перейти к последнему сообщению

В этой теме нет новых непрочитанных сообщений. Скачать торрент Проверен Самолёты: Огонь и вода / Planes: Fire and Rescue (2014) BDRip 1080p | Чистый звук

в форуме Зарубежные мультфильмы (HD Video), Размер: 5.65 ГБ, Здоровье: 75%

Anonymous

0
320|426

118
373

22 окт 2014, 16:15

Anonymous Перейти к последнему сообщению

В этой теме нет новых непрочитанных сообщений. Скачать торрент Проверен Самолеты: Огонь и вода в 3Д / Planes: Fire and Rescue 3D (Роберт Ганнавей / Robert Gannaway) [2014, Мультфильм, комедия, приключения, BDremux, 1080p] BD3D

в форуме 3D Мультфильмы, Размер: 24.31 ГБ, Здоровье: 0%

Anonymous

0
0|0

3
0

07 сен 2016, 18:11

Anonymous Перейти к последнему сообщению

В этой теме нет новых непрочитанных сообщений. Скачать торрент Проверен Самолёты: Огонь и вода / Planes: Fire and Rescue (2014) BDRip 720p | Чистый звук

в форуме Зарубежные мультфильмы (HD Video), Размер: 4.79 ГБ, Здоровье: 60%

Anonymous

0
178|292

110
82

22 окт 2014, 17:49

Anonymous Перейти к последнему сообщению



Сейчас этот форум просматривают: нет зарегистрированных пользователей и гости: 1


Вы не можете начинать темы
Вы не можете отвечать на сообщения
Вы не можете редактировать свои сообщения
Вы не можете удалять свои сообщения
Вы не можете добавлять вложения

Перейти:  

!ВНИМАНИЕ!
 Ресурс не предоставляет электронные версии произведений, а занимается лишь коллекционированием и каталогизацией ссылок, присылаемых и публикуемых на форуме нашими читателями. Если вы являетесь правообладателем какого-либо представленного материала и не желаете чтобы ссылка на него находилась в нашем каталоге, свяжитесь с нами и мы незамедлительно удалим её. Файлы для обмена на трекере предоставлены пользователями сайта, и администрация не несёт ответственности за их содержание. Просьба не заливать файлы, защищенные авторскими правами, а также файлы нелегального содержания!