На всех торрентах на трекере установлена скидка на скачивание в размере 100 процентов(а).
 Возможность скачивания торрента НЕ зависит от ограничений при низком ратио, низком аплоаде, требуемом ратио или требуемом аплоаде.


Начать новую тему Ответить на тему
Статистика раздачи
Размер: 7.76 ГБ | Добавлен: 06 окт 2013, 10:54 | Скачали: 0
Сидеров: 0  [0 байт/сек]    Личеров: 0  [0 байт/сек]
Пред. тема | След. тема 

Автор
Сообщение

СообщениеДобавлено: 06 окт 2013, 10:54 

Информация о фильме
    Русское название: Дорогой Джон
    Оригинальное название: Dear John
    Год выхода: 2010
    Жанр: Мелодрама, драма, военный
    Режиссер: Лассе Халльстрём
    Выпущено: США
    Продолжительность: 01:47:46
    Перевод: Дублированный
    В ролях: Чаннинг Татум, Аманда Сэйфрид, Ричард Дженкинс, Генри Томас, Ди Джей Котрона, Каллен Мосс, Гэвин МакКалли, Хосе Лусена мл., Кейт Робинсон, Скотт Портер


Сюжет фильма
    Две недели, полные счастья первой любви и познания запретных плодов, провели старшеклассница Саванна и солдат Джон Тайри, приехавший домой на побывку. Но время летит быстро — юный любовник вынужден вернуться на службу в Европу. После трагедии 11 сентября 2001 года Джон решает посвятить свою жизнь службе в армии, нарушив обещание, данное Саванне, — вернуться и жениться на ней. Девушка пишет Джону письма, но они приходят все реже и реже.


Файл
    Качество: BDRip 1080p (исходник Blu-ray Disc)
    Видео: 1920x800, 9221 Кбит/сек, 23,976 кадр/сек, AVC, x264, High@L4.1, 2.40:1, 0.250 Бит/[Пиксели*Кадры], 2pass
    Аудио 1: AC-3, 448 Кбит/сек, 6 канала(ов), 48,0 КГц - Дублированный / Русский
    Аудио 2: AC-3, 640 Кбит/сек, 6 канала(ов), 48,0 КГц - Оригинал / Английский
    Субтитры: Русские | Полные, Английские (SDH) | Полные
    Чаптеры: Есть



Автор Рипа:



Format : Matroska
Format version : Version 2
File size : 7.76 GiB
Duration : 1h 47mn
Overall bit rate : 10.3 Mbps
Movie name : Дорогой Джон.(2010).BDRip.1080p.[envy]
Encoded date : UTC 2013-10-06 05:13:46
Writing application : mkvmerge v5.8.0 ('No Sleep / Pillow') built on Sep 2 2012 15:37:04
Writing library : libebml v1.2.3 + libmatroska v1.3.0

Video
ID : 1
Format : AVC
Format/Info : Advanced Video Codec
Format profile : High@L4.1
Format settings, CABAC : Yes
Format settings, ReFrames : 5 frames
Codec ID : V_MPEG4/ISO/AVC
Duration : 1h 47mn
Bit rate : 9 221 Kbps
Width : 1 920 pixels
Height : 800 pixels
Display aspect ratio : 2.40:1
Frame rate mode : Constant
Frame rate : 23.976 fps
Color space : YUV
Chroma subsampling : 4:2:0
Bit depth : 8 bits
Scan type : Progressive
Bits/(Pixel*Frame) : 0.250
Stream size : 6.79 GiB (87%)
Title : Дорогой Джон.(2010).BDRip.1080p.[envy]
Writing library : x264 core 138 r2358 9e941d1
Encoding settings : cabac=1 / ref=5 / deblock=1:-3:-3 / analyse=0x3:0x133 / me=umh / subme=11 / psy=1 / psy_rd=1.00:0.00 / mixed_ref=1 / me_range=32 / chroma_me=1 / trellis=2 / 8x8dct=1 / cqm=0 / deadzone=21,11 / fast_pskip=0 / chroma_qp_offset=-2 / threads=12 / lookahead_threads=1 / sliced_threads=0 / nr=0 / decimate=1 / interlaced=0 / bluray_compat=0 / constrained_intra=0 / bframes=6 / b_pyramid=2 / b_adapt=2 / b_bias=0 / direct=3 / weightb=1 / open_gop=0 / weightp=2 / keyint=240 / keyint_min=23 / scenecut=40 / intra_refresh=0 / rc=2pass / mbtree=0 / bitrate=9221 / ratetol=2.0 / qcomp=0.60 / qpmin=0 / qpmax=69 / qpstep=4 / cplxblur=20.0 / qblur=0.5 / ip_ratio=1.40 / pb_ratio=1.30 / aq=1:0.80
Language : English
Default : Yes
Forced : No

Audio #1
ID : 2
Format : AC-3
Format/Info : Audio Coding 3
Mode extension : CM (complete main)
Format settings, Endianness : Big
Codec ID : A_AC3
Duration : 1h 47mn
Bit rate mode : Constant
Bit rate : 448 Kbps
Channel count : 6 channels
Channel positions : Front: L C R, Side: L R, LFE
Sampling rate : 48.0 KHz
Bit depth : 16 bits
Compression mode : Lossy
Stream size : 345 MiB (4%)
Title : Дубляж
Language : Russian
Default : Yes
Forced : No

Audio #2
ID : 3
Format : AC-3
Format/Info : Audio Coding 3
Mode extension : CM (complete main)
Format settings, Endianness : Big
Codec ID : A_AC3
Duration : 1h 47mn
Bit rate mode : Constant
Bit rate : 640 Kbps
Channel count : 6 channels
Channel positions : Front: L C R, Side: L R, LFE
Sampling rate : 48.0 KHz
Bit depth : 16 bits
Compression mode : Lossy
Stream size : 493 MiB (6%)
Title : Оригинал
Language : English
Default : No
Forced : No

Text #1
ID : 4
Format : UTF-8
Codec ID : S_TEXT/UTF8
Codec ID/Info : UTF-8 Plain Text
Title : Полные
Language : Russian
Default : No
Forced : No

Text #2
ID : 5
Format : UTF-8
Codec ID : S_TEXT/UTF8
Codec ID/Info : UTF-8 Plain Text
Title : Full
Language : English
Default : No
Forced : No

Menu
00:00:00.000 : :Chapter 01
00:07:58.185 : :Chapter 02
00:13:32.770 : :Chapter 03
00:22:13.165 : :Chapter 04
00:29:28.308 : :Chapter 05
00:34:31.736 : :Chapter 06
00:40:11.283 : :Chapter 07
00:47:45.320 : :Chapter 08
00:55:46.301 : :Chapter 09
01:03:20.588 : :Chapter 10
01:09:29.747 : :Chapter 11
01:14:38.890 : :Chapter 12
01:21:48.111 : :Chapter 13
01:26:29.975 : :Chapter 14
01:30:48.526 : :Chapter 15
01:35:10.496 : :Chapter 16
загрузка...
Правила, инструкции, FAQ!!!
Торрент  Добавлен [06 окт 2013, 10:54] Скачать торрент
Скачать торрент
[ Размер 39.23 КБ / Просмотров 13 ]

Статус  
 
Размер  7.76 ГБ
Приватный: Нет (DHT включён)
.torrent скачан  0
Как залить торрент? | Как скачать Torrent? | Как смотреть и слушать онлайн?  


     Отправить личное сообщение
   
Страница 1 из 1
Показать сообщения за:  Поле сортировки  
Начать новую тему Ответить на тему

   Похожие торренты   Автор   Ответы   Просмотры   Последнее сообщение 
В этой теме нет новых непрочитанных сообщений. Скачать торрент Проверен Дорогой Фрэнки / Dear Frankie (2003) WEB-DL 1080p | D, P

в форуме 720p | 1080p, Размер: 4.34 ГБ, Здоровье: 100%

Anonymous

0
75|17

139
19

24 июл 2016, 12:47

Anonymous Перейти к последнему сообщению

В этой теме нет новых непрочитанных сообщений. Скачать торрент Проверен Джон Уик / John Wick (2014) BDRip 1080p | D, A

в форуме 720p | 1080p, Размер: 6.39 ГБ, Здоровье: 100%

Гость

0
356|164

197
387

10 апр 2015, 23:45

Гость Перейти к последнему сообщению

В этой теме нет новых непрочитанных сообщений. Скачать торрент Дорогой Фрэнки / Dear Frankie (Шона Ауэрбах / Shona Auerbach) [2003 г., Драма, Мелодрама, DVDRip] Dub

в форуме Драмы, Мелодрамы, Размер: 744.15 МБ, Здоровье: 100%

Anonymous

0
25|10

49
0

26 апр 2014, 20:58

Anonymous Перейти к последнему сообщению

В этой теме нет новых непрочитанных сообщений. Скачать торрент Дорогой Фрэнки / Dear Frankie (Шона Ауэрбах / Shona Auerbach) [2004, Великобритания, Драма, мелодрама, WEB-DLRip] Dub

в форуме Драмы, Мелодрамы, Размер: 1.73 ГБ, Здоровье: 100%

Anonymous

0
20|7

46
0

26 апр 2014, 20:58

Anonymous Перейти к последнему сообщению

В этой теме нет новых непрочитанных сообщений. Скачать торрент Проверен История игрушек в 3Д / Toy Story 3D (Джон Лассетер / John Lasseter) [1995, Мультфильм, Фэнтези, Приключения, Семейный, BDrip, 1080p] OverUnder / Вертикальная стереопара

в форуме HD-Video в 3D, Размер: 8.2 ГБ, Здоровье: 100%

Anonymous

0
9|3

77
0

02 ноя 2014, 09:51

Anonymous Перейти к последнему сообщению



Сейчас этот форум просматривают: нет зарегистрированных пользователей и гости: 2


Вы не можете начинать темы
Вы не можете отвечать на сообщения
Вы не можете редактировать свои сообщения
Вы не можете удалять свои сообщения
Вы не можете добавлять вложения

Перейти:  

!ВНИМАНИЕ!
 Ресурс не предоставляет электронные версии произведений, а занимается лишь коллекционированием и каталогизацией ссылок, присылаемых и публикуемых на форуме нашими читателями. Если вы являетесь правообладателем какого-либо представленного материала и не желаете чтобы ссылка на него находилась в нашем каталоге, свяжитесь с нами и мы незамедлительно удалим её. Файлы для обмена на трекере предоставлены пользователями сайта, и администрация не несёт ответственности за их содержание. Просьба не заливать файлы, защищенные авторскими правами, а также файлы нелегального содержания!