На всех торрентах на трекере установлена скидка на скачивание в размере 100 процентов(а).
 Возможность скачивания торрента НЕ зависит от ограничений при низком ратио, низком аплоаде, требуемом ратио или требуемом аплоаде.


Начать новую тему Ответить на тему
Статистика раздачи
Размер: 2.18 ГБ | Добавлен: 05 окт 2013, 20:53 | Скачали: 118
Сидеров: 7  [0 байт/сек]    Личеров: 2  [0 байт/сек]
Пред. тема | След. тема 

Автор
Сообщение

СообщениеДобавлено: 05 окт 2013, 20:53 

Название: Собственность дьявола
Оригинальное название: The Devil's Own
Год выхода: 1997
Жанр: триллер, драма, криминал
Режиссер: Алан Дж. Пакула

В ролях: Харрисон Форд, Брэд Питт, Маргарет Колин, Рубен Бладес, Трит Уильямс, Джордж Хирн, Митч Райан, Наташа МакЭлхоун, Пол Ронан, Саймон Джонс, Алексей Мясников, Олег Куценко, Андрей Гриневич, Александр Новиков, Сергей Чекан...

О фильме: Фрэнки Макгуайр — самый опасный террорист Ирландской Республиканской Армии. Прибыв в Америку с миссией покупки оружия, он находит приют в доме Тома О’Миры, нью-йоркского полицейского, который не знает ничего о личности и реальной жизни своего гостя. Все открывается, когда семья Тома сталкивается с террористами по вине Фрэнки. Принципы полицейского и юного мстителя сталкиваются. Борьба между главными героями приводит к неожиданной развязке…



Страна: США, Ирландия
Продолжительность: 01:51:15
Перевод: Дублированный, Оригинал (Английский)


Кодек: х.264
Качество: BDRip-AVC
Видео: 1024х432 (2,40:1), 23,976 fps, 1975 kbps, 0.186 bit/pixel
Аудио #1: 48 kHz, AC3 Dolby Digital, 6 ch, ~448.00 kbps (Русский)
Аудио #2: 48 kHz, AC3 Dolby Digital, 6 ch, ~384.00 kbps (Английский)
Субтитры: Русские, Английские (отключаемые)

&

Общее
Уникальный идентификатор : 245964343273052721098114172298612087703 (0xB90B0267C896EBFB981D2C33B6DE9B97)
Полное имя : D:The Devil's Own.1997.BDRip-AVC.mkv
Формат : Matroska
Версия формата : Version 4 / Version 2
Размер файла : 2,18 Гбайт
Продолжительность : 1 ч. 51 м.
Общий поток : 2808 Кбит/сек
Название фильма : Собственность дьявола / The Devil's Own (1997) BDRip-AVC rip by Rulya74
Дата кодирования : UTC 2013-10-05 09:29:44
Программа кодирования : mkvmerge v6.2.0 ('Promised Land') built on Apr 28 2013 12:22:01
Библиотека кодирования : libebml v1.3.0 + libmatroska v1.4.0

Видео
Идентификатор : 1
Формат : AVC
Формат/Информация : Advanced Video Codec
Профиль формата : High@L4.1
Параметр CABAC формата : Да
Параметр ReFrames формата : 12 кадров
Идентификатор кодека : V_MPEG4/ISO/AVC
Продолжительность : 1 ч. 51 м.
Битрейт : 1975 Кбит/сек
Ширина : 1024 пикселя
Высота : 432 пикселя
Соотношение сторон : 2,40:1
Режим частоты кадров : Постоянный
Частота кадров : 23,976 кадра/сек
Цветовое пространство : YUV
Субдискретизация насыщенности : 4:2:0
Битовая глубина : 8 бит
Тип развёртки : Прогрессивная
Бит/(Пиксели*Кадры) : 0.186
Размер потока : 1,49 Гбайт (68%)
Библиотека кодирования : x264 core 133 r2334 a3ac64b
Настройки программы : cabac=1 / ref=12 / deblock=1:-3:-3 / analyse=0x3:0x113 / me=umh / subme=10 / psy=1 / psy_rd=1.00:0.00 / mixed_ref=1 / me_range=32 / chroma_me=1 / trellis=2 / 8x8dct=1 / cqm=0 / deadzone=21,11 / fast_pskip=0 / chroma_qp_offset=-2 / threads=2 / lookahead_threads=1 / sliced_threads=0 / nr=0 / decimate=1 / interlaced=0 / bluray_compat=0 / constrained_intra=0 / bframes=6 / b_pyramid=2 / b_adapt=1 / b_bias=0 / direct=3 / weightb=1 / open_gop=0 / weightp=2 / keyint=240 / keyint_min=23 / scenecut=40 / intra_refresh=0 / rc_lookahead=40 / rc=2pass / mbtree=1 / bitrate=1975 / ratetol=1.0 / qcomp=0.60 / qpmin=10 / qpmax=69 / qpstep=4 / cplxblur=20.0 / qblur=0.5 / vbv_maxrate=62500 / vbv_bufsize=78125 / nal_hrd=none / ip_ratio=1.40 / aq=2:1.00
Default : Да
Forced : Нет

Аудио #1
Идентификатор : 2
Формат : AC-3
Формат/Информация : Audio Coding 3
Расширение режима : CM (complete main)
Параметр Endianness формата : Big
Идентификатор кодека : A_AC3
Продолжительность : 1 ч. 51 м.
Вид битрейта : Постоянный
Битрейт : 448 Кбит/сек
Каналы : 6 каналов
Расположение каналов : Front: L C R, Side: L R, LFE
Частота : 48,0 КГц
Битовая глубина : 16 бит
Метод сжатия : С потерями
Размер потока : 357 Мбайт (16%)
Заголовок : Дублированный
Язык : Russian
Default : Да
Forced : Нет

Аудио #2
Идентификатор : 3
Формат : AC-3
Формат/Информация : Audio Coding 3
Расширение режима : CM (complete main)
Параметр Endianness формата : Big
Идентификатор кодека : A_AC3
Продолжительность : 1 ч. 51 м.
Вид битрейта : Постоянный
Битрейт : 384 Кбит/сек
Каналы : 6 каналов
Расположение каналов : Front: L C R, Side: L R, LFE
Частота : 48,0 КГц
Битовая глубина : 16 бит
Метод сжатия : С потерями
Размер потока : 306 Мбайт (14%)
Заголовок : Оригинал
Язык : English
Default : Нет
Forced : Нет

Текст #1
Идентификатор : 4
Формат : UTF-8
Идентификатор кодека : S_TEXT/UTF8
Идентификатор кодека/Информация : UTF-8 Plain Text
Язык : Russian
Default : Да
Forced : Нет

Текст #2
Идентификатор : 5
Формат : UTF-8
Идентификатор кодека : S_TEXT/UTF8
Идентификатор кодека/Информация : UTF-8 Plain Text
Язык : English
Default : Нет
Forced : Нет

Меню
00:00:00.000 : :Chapter 01
00:13:56.710 : :Chapter 02
00:21:07.599 : :Chapter 03
00:27:06.708 : :Chapter 04
00:33:43.896 : :Chapter 05
00:38:34.520 : :Chapter 06
00:45:38.068 : :Chapter 07
00:54:39.025 : :Chapter 08
01:00:06.936 : :Chapter 09
01:06:36.325 : :Chapter 10
01:13:27.653 : :Chapter 11
01:18:18.151 : :Chapter 12
01:25:13.983 : :Chapter 13
01:33:18.843 : :Chapter 14
01:38:05.129 : :Chapter 15
01:41:56.360 : :Chapter 16

загрузка...
Правила, инструкции, FAQ!!!
Торрент  Добавлен [05 окт 2013, 20:53] Скачать торрент
Скачать торрент
[ Размер 11.33 КБ / Просмотров 8 ]

Статус  
 
Размер  2.18 ГБ
Приватный: Нет (DHT включён)
.torrent скачан  118
Как залить торрент? | Как скачать Torrent? | Как смотреть и слушать онлайн?  


     Отправить личное сообщение
   
Страница 1 из 1
Показать сообщения за:  Поле сортировки  
Начать новую тему Ответить на тему

   Похожие торренты   Автор   Ответы   Просмотры   Последнее сообщение 
В этой теме нет новых непрочитанных сообщений. Скачать торрент Собственность дьявола / The Devil's Own (1997) BDRip 720p | Лицензия

в форуме 720p | 1080p, Размер: 2.99 ГБ, Здоровье: 100%

Anonymous

0
11|1

23
75

06 фев 2014, 15:34

Anonymous Перейти к последнему сообщению

В этой теме нет новых непрочитанных сообщений. Скачать торрент Проверен Адвокат дьявола / The Devil's Advocate [1997] HDTVRip

в форуме Видео для смартфонов и КПК, Размер: 716.29 МБ, Здоровье: 50%

Anonymous

0
1|2

59
0

25 окт 2014, 23:29

Anonymous Перейти к последнему сообщению

В этой теме нет новых непрочитанных сообщений. Скачать торрент Паганини: Скрипач Дьявола / The Devil's Violinist (2013) BDRip 720p | D | iTunes Russia

в форуме 720p | 1080p, Размер: 2.69 ГБ, Здоровье: 100%

Anonymous

0
31|0

32
240

11 апр 2014, 10:19

Anonymous Перейти к последнему сообщению

В этой теме нет новых непрочитанных сообщений. Скачать торрент Игры дьявола / Before the Devil Knows You're Dead (Сидни Люмет / Sidney Lumet) [2007, США, Великобритания, Триллер, драма, криминал, BDRip-AVC] Dub + Sub Rus + Original Eng

в форуме 720p | 1080p, Размер: 2.18 ГБ, Здоровье: 100%

Anonymous

0
19|6

25
0

16 фев 2014, 13:07

Anonymous Перейти к последнему сообщению

В этой теме нет новых непрочитанных сообщений. Скачать торрент Гробница дьявола (Геенна) / The Devil's Tomb (Джейсон Коннери / Jason Connery) [2009 г., ужасы, фантастика, боевик, триллер, BDRip] [720p/DVD5] DVO + Original

в форуме 720p | 1080p, Размер: 4.65 ГБ, Здоровье: 0%

Anonymous

0
0|0

46
0

25 фев 2014, 22:39

Anonymous Перейти к последнему сообщению



Сейчас этот форум просматривают: нет зарегистрированных пользователей и гости: 1


Вы не можете начинать темы
Вы не можете отвечать на сообщения
Вы не можете редактировать свои сообщения
Вы не можете удалять свои сообщения
Вы не можете добавлять вложения

Перейти:  

!ВНИМАНИЕ!
 Ресурс не предоставляет электронные версии произведений, а занимается лишь коллекционированием и каталогизацией ссылок, присылаемых и публикуемых на форуме нашими читателями. Если вы являетесь правообладателем какого-либо представленного материала и не желаете чтобы ссылка на него находилась в нашем каталоге, свяжитесь с нами и мы незамедлительно удалим её. Файлы для обмена на трекере предоставлены пользователями сайта, и администрация не несёт ответственности за их содержание. Просьба не заливать файлы, защищенные авторскими правами, а также файлы нелегального содержания!