На всех торрентах на трекере установлена скидка на скачивание в размере 100 процентов(а).
 Возможность скачивания торрента НЕ зависит от ограничений при низком ратио, низком аплоаде, требуемом ратио или требуемом аплоаде.


Начать новую тему Ответить на тему
Статистика раздачи
Размер: 2.18 ГБ | Добавлен: 05 окт 2013, 11:48 | Скачали: 0
Сидеров: 0  [0 байт/сек]    Личеров: 0  [0 байт/сек]
Пред. тема | След. тема 

Автор
Сообщение

СообщениеДобавлено: 05 окт 2013, 11:48 

Название: Альбино Аллигатор
Оригинальное название: Albino Alligator
Год выхода: 1996
Жанр: триллер, драма, криминал
Режиссер: Кевин Спейси

В ролях: Мэтт Диллон, Фэй Данауэй, Гэри Синиз, Уильям Фихтнер, Вигго Мортенсен, Джон Спенсер, Скит Ульрих, Фрэнки Фэйзон, Мелинда МакГроу, М. Эммет Уолш, Джо Мантенья, Даг Спинуцца, Спенсер Гаррет, Энрико Колантони, Трэвис Аппель, Брэд Копеник, Джок Уорфен, Уилли С. Карпентер, Александр Смит, Майкл Унгер, Тони Монтгомери, Джеффри Хоффман, Аура Фигуередо, Энтони Мур

О фильме:
Не каждый может стать героем. Но жертвами могут оказаться все. Идеально задуманное преступление не удалось. Несколько преступников скрываются от погони в маленьком подвальном кабачке. Все посетители взяты в заложники. Полиция блокирует единственный выход. Ни полиция, ни бандиты не собираются уступать. Один из преступников вспоминает про то, как стая аллигаторов использует своего собрата-альбиноса в качестве приманки для конкурентов. Кто станет этой жертвой? И случайно ли преступники оказались в западне?



Страна: США, Франция
Студия: Albino Alligator Productions, Miramax Films, Motion Picture Corporation of America (MPCA), Union Generale Cinematographique (UGC)
Продолжительность: 01:34:04
Перевод: Профессиональный (многоголосый закадровый)


Кодек: h.264
Качество: BDRip-AVC
Видео: 2704 Кбит/с, 1024x436, 23.976 кадр/с
Аудио: Русский (AC3, 2 ch, 224 Кбит/с), английский (AC3, 2 ch, 384 Кбит/с)

---------------------------------------------------------------------------
x264 [info]: frame I:1104 Avg QP:16.26 size: 72932
x264 [info]: frame P:25796 Avg QP:19.05 size: 26495
x264 [info]: frame B:108425 Avg QP:19.93 size: 10538
---------------------------------------------------------------------------

Полное имя : Aljbino.Alligator.1996.x264.BDRip.(AVC).0ptimus.mkv
Формат : Matroska
Версия формата : Version 2
Размер файла : 2,18 Гбайт
Продолжительность : 1 ч. 34 м.
Общий поток : 3312 Кбит/сек
Название фильма : Альбино Аллигатор / Albino Alligator [1996] -=BDRip (AVC) by 0ptimus=-
Дата кодирования : UTC 2012-08-07 12:58:44
Программа кодирования : mkvmerge v5.7.0 ('The Whirlwind') built on Jul 8 2012 20:08:51
Библиотека кодирования : libebml v1.2.3 + libmatroska v1.3.0

Видео
Идентификатор : 1
Формат : AVC
Формат/Информация : Advanced Video Codec
Профиль формата : High@L4.1
Параметр CABAC формата : Да
Параметр ReFrames формата : 10 кадров
Идентификатор кодека : V_MPEG4/ISO/AVC
Продолжительность : 1 ч. 34 м.
Битрейт : 2704 Кбит/сек
Ширина : 1024 пикселя
Высота : 436 пикселей
Соотношение сторон : 2,35:1
Частота кадров : 23,976 кадра/сек
Цветовое пространство : YUV
Субдискретизация насыщенности : 4:2:0
Битовая глубина : 8 бит
Тип развёртки : Прогрессивная
Бит/(Пиксели*Кадры) : 0.253
Размер потока : 1,73 Гбайт (80%)
Библиотека кодирования : x264 core 125 r2200 999b753
Настройки программы : cabac=1 / ref=10 / deblock=1:-2:-1 / analyse=0x3:0x113 / me=umh / subme=11 / psy=1 / psy_rd=1.00:0.20 / mixed_ref=1 / me_range=32 / chroma_me=1 / trellis=2 / 8x8dct=1 / cqm=0 / deadzone=21,11 / fast_pskip=0 / chroma_qp_offset=-3 / threads=3 / lookahead_threads=1 / sliced_threads=0 / nr=0 / decimate=0 / interlaced=0 / bluray_compat=0 / constrained_intra=0 / bframes=8 / b_pyramid=2 / b_adapt=2 / b_bias=0 / direct=3 / weightb=1 / open_gop=0 / weightp=2 / keyint=240 / keyint_min=23 / scenecut=40 / intra_refresh=0 / rc_lookahead=40 / rc=2pass / mbtree=0 / bitrate=2704 / ratetol=1.0 / qcomp=0.60 / qpmin=0 / qpmax=69 / qpstep=4 / cplxblur=20.0 / qblur=0.5 / vbv_maxrate=50000 / vbv_bufsize=50000 / nal_hrd=none / ip_ratio=1.40 / pb_ratio=1.30 / aq=1:1.00
Язык : English
Default : Да
Forced : Да

Аудио #1
Идентификатор : 2
Формат : AC-3
Формат/Информация : Audio Coding 3
Расширение режима : CM (complete main)
Параметр Endianness формата : Big
Идентификатор кодека : A_AC3
Продолжительность : 1 ч. 34 м.
Вид битрейта : Постоянный
Битрейт : 224 Кбит/сек
Каналы : 2 канала
Расположение каналов : Front: L R
Частота : 48,0 КГц
Битовая глубина : 16 бит
Метод сжатия : С потерями
Размер потока : 151 Мбайт (7%)
Заголовок : Многоголосый
Язык : Russian
Default : Да
Forced : Да

Аудио #2
Идентификатор : 3
Формат : AC-3
Формат/Информация : Audio Coding 3
Расширение режима : CM (complete main)
Параметр Endianness формата : Big
Идентификатор кодека : A_AC3
Продолжительность : 1 ч. 34 м.
Вид битрейта : Постоянный
Битрейт : 384 Кбит/сек
Каналы : 2 канала
Расположение каналов : Front: L R
Частота : 48,0 КГц
Битовая глубина : 16 бит
Метод сжатия : С потерями
Размер потока : 258 Мбайт (12%)
Язык : English
Default : Нет
Forced : Нет

Меню
00:00:00.000 : :Chapter 01
00:09:11.925 : :Chapter 02
00:21:02.386 : :Chapter 03
00:32:12.555 : :Chapter 04
00:37:07.934 : :Chapter 05
00:43:27.478 : :Chapter 06
00:47:47.531 : :Chapter 07
00:53:46.431 : :Chapter 08
01:03:14.540 : :Chapter 09
01:11:43.048 : :Chapter 10
01:18:28.829 : :Chapter 11
01:26:35.564 : :Chapter 12
01:34:04.138 : :Chapter 13




Релиз от:
загрузка...
Правила, инструкции, FAQ!!!
Торрент  Добавлен [05 окт 2013, 11:48] Скачать торрент
Скачать торрент
[ Размер 22.35 КБ / Просмотров 8 ]

Статус  
 
Размер  2.18 ГБ
Приватный: Нет (DHT включён)
.torrent скачан  0
Как залить торрент? | Как скачать Torrent? | Как смотреть и слушать онлайн?  


     Отправить личное сообщение
   
Страница 1 из 1
Показать сообщения за:  Поле сортировки  
Начать новую тему Ответить на тему

   Похожие торренты   Автор   Ответы   Просмотры   Последнее сообщение 
В этой теме нет новых непрочитанных сообщений. Скачать торрент Проверен (Blues) [CD] William Clarke - Collection - 4 albums (Alligator Records) - 1990-1996, FLAC (image+.cue), lossless

в форуме Blues (Texas, Chicago, Modern and Others), Размер: 1.51 ГБ, Здоровье: 0%

Anonymous

0
0|0

0
0

15 окт 2016, 18:22

Anonymous Перейти к последнему сообщению

В этой теме нет новых непрочитанных сообщений. Скачать торрент Проверен (Blues) [CD] Long John Hunter - Collection (Alligator Records) - 3 albums - 1996-1998, FLAC (image+.cue), lossless

в форуме Blues (Texas, Chicago, Modern and Others), Размер: 1.16 ГБ, Здоровье: 0%

Anonymous

0
0|0

1
0

15 окт 2016, 21:06

Anonymous Перейти к последнему сообщению

В этой теме нет новых непрочитанных сообщений. Скачать торрент Проверен Bring Me The Horizon - Alligator Blood [2011, Ambient, HDCam]

в форуме Концерты (HD-Video), Размер: 152.48 МБ, Здоровье: 100%

Anonymous

0
1|0

0
0

23 окт 2016, 11:08

Anonymous Перейти к последнему сообщению

В этой теме нет новых непрочитанных сообщений. Скачать торрент Проверен [TR24][OF] Lou Donaldson - Alligator Bogaloo - 1967/2013 (Jazz)

в форуме Hi-Res stereo (Джаз и Блюз), Размер: 1.18 ГБ, Здоровье: 0%

Anonymous

0
0|0

0
0

27 авг 2016, 14:24

Anonymous Перейти к последнему сообщению

В этой теме нет новых непрочитанных сообщений. Скачать торрент Проверен (Blues-Rock) Scrapomatic - Alligator Love Cry - 2006, APE (image+.cue) lossless

в форуме Blues (Texas, Chicago, Modern and Others), Размер: 268.19 МБ, Здоровье: 0%

Anonymous

0
0|0

0
0

15 окт 2016, 15:46

Anonymous Перейти к последнему сообщению



Сейчас этот форум просматривают: нет зарегистрированных пользователей и гости: 4


Вы не можете начинать темы
Вы не можете отвечать на сообщения
Вы не можете редактировать свои сообщения
Вы не можете удалять свои сообщения
Вы не можете добавлять вложения

Перейти:  

!ВНИМАНИЕ!
 Ресурс не предоставляет электронные версии произведений, а занимается лишь коллекционированием и каталогизацией ссылок, присылаемых и публикуемых на форуме нашими читателями. Если вы являетесь правообладателем какого-либо представленного материала и не желаете чтобы ссылка на него находилась в нашем каталоге, свяжитесь с нами и мы незамедлительно удалим её. Файлы для обмена на трекере предоставлены пользователями сайта, и администрация не несёт ответственности за их содержание. Просьба не заливать файлы, защищенные авторскими правами, а также файлы нелегального содержания!