На всех торрентах на трекере установлена скидка на скачивание в размере 100 процентов(а).
 Возможность скачивания торрента НЕ зависит от ограничений при низком ратио, низком аплоаде, требуемом ратио или требуемом аплоаде.


Начать новую тему Ответить на тему
Статистика раздачи
Размер: 11.37 ГБ | Добавлен: 03 окт 2013, 09:16 | Скачали: 0
Сидеров: 0  [0 байт/сек]    Личеров: 0  [0 байт/сек]
Пред. тема | След. тема 

Автор
Сообщение

СообщениеДобавлено: 03 окт 2013, 09:16 



Информация о фильме
Русское название: Реквием по мечте (Режиссёрская версия)
Оригинальное название: Requiem for a dream (Director's cut)
Год выхода: 2000
Жанр: Драма
Режиссер: Даррен Аронофски
Выпущено: Artisan Entertainment
Продолжительность: 01:34:48
Перевод: Дублированный, профессиональный многоголосый, авторский одноголосый
В ролях: Эллен Берстин, Джаред Лето, Дженнифер Коннелли, Марлон Уайанс, Кристофер МакДональд, Луиз Лэссер, Марсия Жан Кертц, Джанет Сарно, Сюзанн Шеперд, Джоэнн Гордон


Сюжет фильма

«Невыносимая легкость апокалипсиса»

Каждый из главных героев фильма стремился к своей заветной мечте. Сара Голдфарб мечтала сняться в известном телешоу, ее сын Гарольд со своим другом Тайроном — сказочно разбогатеть, подруга Гарольда Мэрион грезила о собственном модном магазине, но на их пути были всяческие препятствия. События фильма разворачиваются стремительно, герои погрязли в наркотиках. Мечты по-прежнему остаются недостижимыми, а жизни героев рушатся безвозвратно.


Файл
Качество: BDRip 1080p (исходник Blu-ray Disc)
Видео: 1920x1040, ~14000 Кбит/сек, 23,976 кадр/сек, AVC, x264, High@L4.1, 1.85:1, 0.292 Бит/[Пиксели*Кадры], 2pass
Аудио 1: AC-3, 384 Кбит/сек, 6 канала(ов), 48,0 КГц - Дублированный / Русский
Аудио 2: AC-3, 384 Кбит/сек, 6 канала(ов), 48,0 КГц - Профессиональный (многоголосый, закадровый) (Tycoon) / Русский
Аудио 3: AC-3, 640 Кбит/сек, 6 канала(ов), 48,0 КГц - Авторский одноголосый (Сергей Визгунов)
Аудио 3: AC-3, 640 Кбит/сек, 6 канала(ов), 48,0 КГц - Оригинал / Английский
Субтитры: Русские | (West Video), (Tycoon) | Английские
Чаптеры: Есть


Автор Рипа:







Format : Matroska
Format version : Version 2
File size : 11.4 GiB
Duration : 1h 41mn
Overall bit rate : 16.0 Mbps
Movie name : Реквием по мечте.(Режиссерская версия).2000.BDRip.1080p.[_denis_100]
Encoded date : UTC 2013-10-03 04:40:49
Writing application : mkvmerge v5.8.0 ('No Sleep / Pillow') built on Sep 2 2012 15:37:04
Writing library : libebml v1.2.3 + libmatroska v1.3.0

Video
ID : 1
Format : AVC
Format/Info : Advanced Video Codec
Format profile : High@L4.1
Format settings, CABAC : Yes
Format settings, ReFrames : 4 frames
Codec ID : V_MPEG4/ISO/AVC
Duration : 1h 41mn
Bit rate : 14.0 Mbps
Width : 1 920 pixels
Height : 1 040 pixels
Display aspect ratio : 1.85:1
Frame rate mode : Constant
Frame rate : 23.976 fps
Color space : YUV
Chroma subsampling : 4:2:0
Bit depth : 8 bits
Scan type : Progressive
Bits/(Pixel*Frame) : 0.292
Stream size : 9.69 GiB (85%)
Title : Реквием по мечте.(Режиссерская версия).2000.BDRip.1080p Release _denis_100
Writing library : x264 core 138 r2358 9e941d1
Encoding settings : cabac=1 / ref=4 / deblock=1:-3:-3 / analyse=0x3:0x113 / me=umh / subme=11 / psy=1 / psy_rd=1.00:0.15 / mixed_ref=1 / me_range=32 / chroma_me=1 / trellis=2 / 8x8dct=1 / cqm=0 / deadzone=21,11 / fast_pskip=0 / chroma_qp_offset=-3 / threads=6 / lookahead_threads=1 / sliced_threads=0 / nr=0 / decimate=0 / interlaced=0 / bluray_compat=0 / constrained_intra=0 / bframes=5 / b_pyramid=2 / b_adapt=2 / b_bias=0 / direct=3 / weightb=1 / open_gop=0 / weightp=2 / keyint=240 / keyint_min=23 / scenecut=40 / intra_refresh=0 / rc=2pass / mbtree=0 / bitrate=14000 / ratetol=1.0 / qcomp=0.60 / qpmin=0 / qpmax=69 / qpstep=4 / cplxblur=20.0 / qblur=0.5 / ip_ratio=1.40 / pb_ratio=1.30 / aq=1:0.95
Language : English
Default : Yes
Forced : No

Audio #1
ID : 2
Format : AC-3
Format/Info : Audio Coding 3
Mode extension : CM (complete main)
Format settings, Endianness : Big
Codec ID : A_AC3
Duration : 1h 41mn
Bit rate mode : Constant
Bit rate : 384 Kbps
Channel(s) : 6 channels
Channel positions : Front: L C R, Side: L R, LFE
Sampling rate : 48.0 KHz
Bit depth : 16 bits
Compression mode : Lossy
Stream size : 279 MiB (2%)
Title : Дублированный
Language : Russian
Default : Yes
Forced : No

Audio #2
ID : 3
Format : AC-3
Format/Info : Audio Coding 3
Mode extension : CM (complete main)
Format settings, Endianness : Big
Codec ID : A_AC3
Duration : 1h 41mn
Bit rate mode : Constant
Bit rate : 384 Kbps
Channel(s) : 6 channels
Channel positions : Front: L C R, Side: L R, LFE
Sampling rate : 48.0 KHz
Bit depth : 16 bits
Compression mode : Lossy
Stream size : 279 MiB (2%)
Title : профессиональный (многоголосый, закадровый) (Tycoon)
Language : Russian
Default : No
Forced : No

Audio #3
ID : 4
Format : AC-3
Format/Info : Audio Coding 3
Mode extension : CM (complete main)
Format settings, Endianness : Big
Codec ID : A_AC3
Duration : 1h 41mn
Bit rate mode : Constant
Bit rate : 640 Kbps
Channel(s) : 6 channels
Channel positions : Front: L C R, Side: L R, LFE
Sampling rate : 48.0 KHz
Bit depth : 16 bits
Compression mode : Lossy
Stream size : 464 MiB (4%)
Title : авторский одноголосый (Сергей Визгунов)
Language : Russian
Default : No
Forced : No

Audio #4
ID : 5
Format : AC-3
Format/Info : Audio Coding 3
Mode extension : CM (complete main)
Format settings, Endianness : Big
Codec ID : A_AC3
Duration : 1h 41mn
Bit rate mode : Constant
Bit rate : 640 Kbps
Channel(s) : 6 channels
Channel positions : Front: L C R, Side: L R, LFE
Sampling rate : 48.0 KHz
Bit depth : 16 bits
Compression mode : Lossy
Stream size : 464 MiB (4%)
Title : Английский
Language : English
Default : No
Forced : No

Text #1
ID : 6
Format : UTF-8
Codec ID : S_TEXT/UTF8
Codec ID/Info : UTF-8 Plain Text
Title : Русские (West Video)
Language : Russian
Default : No
Forced : No

Text #2
ID : 7
Format : UTF-8
Codec ID : S_TEXT/UTF8
Codec ID/Info : UTF-8 Plain Text
Title : Русские (Tycoon)
Default : No
Forced : No

Text #3
ID : 8
Format : UTF-8
Codec ID : S_TEXT/UTF8
Codec ID/Info : UTF-8 Plain Text
Title : Английские
Language : English
Default : No
Forced : No


x264 [info]: frame I:964 Avg QP:16.76 size:197268
x264 [info]: frame P:34350 Avg QP:19.07 size:111650
x264 [info]: frame B:111621 Avg QP:20.97 size: 60863

загрузка...
Правила, инструкции, FAQ!!!
Торрент  Добавлен [03 окт 2013, 09:16] Скачать торрент
Скачать торрент
[ Размер 57.31 КБ / Просмотров 13 ]

Статус  
 
Размер  11.37 ГБ
Приватный: Нет (DHT включён)
.torrent скачан  0
Как залить торрент? | Как скачать Torrent? | Как смотреть и слушать онлайн?  


     Отправить личное сообщение
   
Страница 1 из 1
Показать сообщения за:  Поле сортировки  
Начать новую тему Ответить на тему

   Похожие торренты   Автор   Ответы   Просмотры   Последнее сообщение 
В этой теме нет новых непрочитанных сообщений. Скачать торрент Проверен [Retina Display]Реквием по мечте / Requiem for a Dream (2000) BDRip

в форуме Видео для смартфонов и КПК, Размер: 1.6 ГБ, Здоровье: 100%

Anonymous

0
2|1

31
0

25 окт 2014, 23:13

Anonymous Перейти к последнему сообщению

В этой теме нет новых непрочитанных сообщений. Скачать торрент Проверен Hubert Selby / Хьюберт Селби - Requiem for a Dream / Реквием по мечте [2006, FB2, RUS]

в форуме Зарубежная литература (XX и XXI век), Размер: 941.84 КБ, Здоровье: 0%

Anonymous

0
0|0

1
0

08 сен 2016, 19:00

Anonymous Перейти к последнему сообщению

В этой теме нет новых непрочитанных сообщений. Скачать торрент Чужие против Хищника: Реквием / AVPR: Aliens vs Predator - Requiem (Колин Штраус / Colin Strause, Грег Штраус / Greg Strause) [2007 г., Ужасы, Боевик, Фантастика, BDRip] Dub, Unrated

в форуме Ужасы, Размер: 1.46 ГБ, Здоровье: 0%

Anonymous

0
0|0

97
0

13 фев 2014, 06:33

Anonymous Перейти к последнему сообщению

В этой теме нет новых непрочитанных сообщений. Скачать торрент Большой куш / Snatch. (2000) BDRip 1080р

в форуме 720p | 1080p, Размер: 5.89 ГБ, Здоровье: 100%

Anonymous

0
30|2

47
338

28 мар 2014, 13:47

Anonymous Перейти к последнему сообщению

В этой теме нет новых непрочитанных сообщений. Скачать торрент Проверен Азартные игры / Reindeer Games (2000) BDRip 720p | Director's Cut | A

в форуме 720p | 1080p, Размер: 6.48 ГБ, Здоровье: 100%

Гость

0
57|12

31
56

05 сен 2016, 00:08

Гость Перейти к последнему сообщению



Сейчас этот форум просматривают: нет зарегистрированных пользователей и гости: 4


Вы не можете начинать темы
Вы не можете отвечать на сообщения
Вы не можете редактировать свои сообщения
Вы не можете удалять свои сообщения
Вы не можете добавлять вложения

Перейти:  

!ВНИМАНИЕ!
 Ресурс не предоставляет электронные версии произведений, а занимается лишь коллекционированием и каталогизацией ссылок, присылаемых и публикуемых на форуме нашими читателями. Если вы являетесь правообладателем какого-либо представленного материала и не желаете чтобы ссылка на него находилась в нашем каталоге, свяжитесь с нами и мы незамедлительно удалим её. Файлы для обмена на трекере предоставлены пользователями сайта, и администрация не несёт ответственности за их содержание. Просьба не заливать файлы, защищенные авторскими правами, а также файлы нелегального содержания!