На всех торрентах на трекере установлена скидка на скачивание в размере 100 процентов(а).
 Возможность скачивания торрента НЕ зависит от ограничений при низком ратио, низком аплоаде, требуемом ратио или требуемом аплоаде.


Начать новую тему Ответить на тему
Статистика раздачи
Размер: 7.76 ГБ | Добавлен: 30 сен 2013, 16:41 | Скачали: 0
Сидеров: 0  [0 байт/сек]    Личеров: 0  [0 байт/сек]
Пред. тема | След. тема 

Автор
Сообщение

СообщениеДобавлено: 30 сен 2013, 16:41 

Информация о фильме
    Русское название: Доказательство смерти
    Оригинальное название: Death Proof
    Год выхода: 2007
    Жанр: Боевик, триллер, криминал
    Режиссер: Квентин Тарантино
    Выпущено: США
    Продолжительность: 01:53:36
    Перевод: Дублированный
    В ролях: Курт Рассел, Зои Белл, Розарио Доусон, Ванесса Ферлито, Сидни Тамиа Пуатье, Трейси Томс, Роуз МакГоун, Джордан Лэдд, Мэри Элизабет Уинстэд, Квентин Тарантино


Сюжет фильма
    Три красотки решают развлечься и отправляются в ресторанчик. Они даже не подозревают, что на этот раз их ждет особый интерес со стороны мужчин! Каскадер Майк украдкой наблюдает за ними из своего автомобиля. Он любит быструю езду и не прочь подбросить до дома симпатичную девушку. А ещё он считает, что выйдет сухим из воды даже в случае самой ужасной аварии…


Файл
    Качество: BDRip 1080p (исходник Blu-ray Disc)
    Видео: 1920x818, 8691 Кбит/сек, 23,976 кадр/сек, AVC, x264, High@L4.1, 2.35:1, 0.231 Бит/[Пиксели*Кадры], 2pass
    Аудио 1: AC-3, 448 Кбит/сек, 6 канала(ов), 48,0 КГц - Дублированный / Русский
    Аудио 2: AC-3, 640 Кбит/сек, 6 канала(ов), 48,0 КГц - Оригинал / Английский
    Субтитры: Русские | Полные, Английские | Полные
    Чаптеры: Есть



Автор Рипа:



Format : Matroska
Format version : Version 2
File size : 7.76 GiB
Duration : 1h 53mn
Overall bit rate : 9 772 Kbps
Movie name : Доказательство смерти.(2007).BDRip.1080p.[envy]
Encoded date : UTC 2013-09-30 07:55:15
Writing application : mkvmerge v5.8.0 ('No Sleep / Pillow') built on Sep 2 2012 15:37:04
Writing library : libebml v1.2.3 + libmatroska v1.3.0

Video
ID : 1
Format : AVC
Format/Info : Advanced Video Codec
Format profile : High@L4.1
Format settings, CABAC : Yes
Format settings, ReFrames : 4 frames
Codec ID : V_MPEG4/ISO/AVC
Duration : 1h 53mn
Bit rate : 8 691 Kbps
Width : 1 920 pixels
Height : 818 pixels
Display aspect ratio : 2.35:1
Frame rate mode : Constant
Frame rate : 23.976 fps
Color space : YUV
Chroma subsampling : 4:2:0
Bit depth : 8 bits
Scan type : Progressive
Bits/(Pixel*Frame) : 0.231
Stream size : 6.74 GiB (87%)
Title : Доказательство смерти.(2007).BDRip.1080p.[envy]
Writing library : x264 core 138 r2358 9e941d1
Encoding settings : cabac=1 / ref=4 / deblock=1:-3:-3 / analyse=0x3:0x133 / me=umh / subme=11 / psy=1 / psy_rd=1.00:0.00 / mixed_ref=1 / me_range=32 / chroma_me=1 / trellis=2 / 8x8dct=1 / cqm=0 / deadzone=21,11 / fast_pskip=0 / chroma_qp_offset=-2 / threads=12 / lookahead_threads=1 / sliced_threads=0 / nr=0 / decimate=1 / interlaced=0 / bluray_compat=0 / constrained_intra=0 / bframes=6 / b_pyramid=2 / b_adapt=2 / b_bias=0 / direct=3 / weightb=1 / open_gop=0 / weightp=2 / keyint=240 / keyint_min=23 / scenecut=40 / intra_refresh=0 / rc=2pass / mbtree=0 / bitrate=8691 / ratetol=2.0 / qcomp=0.60 / qpmin=0 / qpmax=69 / qpstep=4 / cplxblur=20.0 / qblur=0.5 / ip_ratio=1.40 / pb_ratio=1.30 / aq=1:0.80
Language : English
Default : Yes
Forced : No

Audio #1
ID : 2
Format : AC-3
Format/Info : Audio Coding 3
Mode extension : CM (complete main)
Format settings, Endianness : Big
Codec ID : A_AC3
Duration : 1h 53mn
Bit rate mode : Constant
Bit rate : 448 Kbps
Channel count : 6 channels
Channel positions : Front: L C R, Side: L R, LFE
Sampling rate : 48.0 KHz
Bit depth : 16 bits
Compression mode : Lossy
Stream size : 364 MiB (5%)
Title : Дублированный
Language : Russian
Default : Yes
Forced : No

Audio #2
ID : 3
Format : AC-3
Format/Info : Audio Coding 3
Mode extension : CM (complete main)
Format settings, Endianness : Big
Codec ID : A_AC3
Duration : 1h 53mn
Bit rate mode : Constant
Bit rate : 640 Kbps
Channel count : 6 channels
Channel positions : Front: L C R, Side: L R, LFE
Sampling rate : 48.0 KHz
Bit depth : 16 bits
Compression mode : Lossy
Stream size : 520 MiB (7%)
Title : Оригинал
Language : English
Default : No
Forced : No

Text #1
ID : 4
Format : UTF-8
Codec ID : S_TEXT/UTF8
Codec ID/Info : UTF-8 Plain Text
Title : Полные
Language : Russian
Default : No
Forced : No

Text #2
ID : 5
Format : UTF-8
Codec ID : S_TEXT/UTF8
Codec ID/Info : UTF-8 Plain Text
Title : Full
Language : English
Default : No
Forced : No

Menu
00:00:00.000 : :Chapter 01
00:03:20.074 : :Chapter 02
00:09:00.665 : :Chapter 03
00:14:06.387 : :Chapter 04
00:19:40.429 : :Chapter 05
00:22:17.919 : :Chapter 06
00:27:19.804 : :Chapter 07
00:30:50.598 : :Chapter 08
00:39:10.806 : :Chapter 09
00:41:58.933 : :Chapter 10
00:45:05.869 : :Chapter 11
00:48:22.190 : :Chapter 12
00:51:40.222 : :Chapter 13
00:55:46.968 : :Chapter 14
01:05:31.928 : :Chapter 15
01:11:49.221 : :Chapter 16
01:19:06.199 : :Chapter 17
01:27:46.344 : :Chapter 18
01:32:31.712 : :Chapter 19
01:40:16.844 : :Chapter 20
01:49:31.106 : :Chapter 21
загрузка...
Правила, инструкции, FAQ!!!
Торрент  Добавлен [30 сен 2013, 16:41] Скачать торрент
Скачать торрент
[ Размер 39.21 КБ / Просмотров 7 ]

Статус  
 
Размер  7.76 ГБ
Приватный: Нет (DHT включён)
.torrent скачан  0
Как залить торрент? | Как скачать Torrent? | Как смотреть и слушать онлайн?  


     Отправить личное сообщение
   
Страница 1 из 1
Показать сообщения за:  Поле сортировки  
Начать новую тему Ответить на тему

   Похожие торренты   Автор   Ответы   Просмотры   Последнее сообщение 
В этой теме нет новых непрочитанных сообщений. Скачать торрент Проверен [iPad] Доказательство смерти / Death Proof (Квентин Тарантино) [2007 г., триллер, криминал, BDRip]

в форуме Фильмы для iPod, iPhone, iPad, Размер: 3.28 ГБ, Здоровье: 100%

Гость

0
14|4

25
0

11 май 2015, 01:32

Гость Перейти к последнему сообщению

В этой теме нет новых непрочитанных сообщений. Скачать торрент Доказательство смерти / Death Proof (Квентин Тарантино / Quentin Tarantino) [2007, боевик, триллер, криминал, BDRip-AVC]

в форуме 720p | 1080p, Размер: 2.59 ГБ, Здоровье: 100%

Anonymous

0
2|1

69
0

17 фев 2014, 08:07

Anonymous Перейти к последнему сообщению

В этой теме нет новых непрочитанных сообщений. Скачать торрент Доказательство смерти / Death Proof (Grindhouse / Грайндхаус) (Квентин Тарантино / Quentin Tarantino) [2007 г., Ужасы, триллер, криминал, HDTVRip] Dub

в форуме Ужасы, Размер: 1.46 ГБ, Здоровье: 100%

Anonymous

0
34|11

47
0

04 фев 2014, 21:26

Anonymous Перейти к последнему сообщению

В этой теме нет новых непрочитанных сообщений. Скачать торрент Проверен Пробуждение смерти / Wake of Death (2004) BDRip [1080p]

в форуме 720p | 1080p, Размер: 8.76 ГБ, Здоровье: 100%

Anonymous

0
50|4

21
0

06 янв 2015, 10:55

Anonymous Перейти к последнему сообщению

В этой теме нет новых непрочитанных сообщений. Скачать торрент Проверен Игра смерти / Game of Death / Si wang you xi (1978) BDRip [H.264/1080p]

в форуме 720p | 1080p, Размер: 11.73 ГБ, Здоровье: 0%

Гость

0
0|0

54
1

22 май 2015, 10:02

Гость Перейти к последнему сообщению



Сейчас этот форум просматривают: нет зарегистрированных пользователей и гости: 1


Вы не можете начинать темы
Вы не можете отвечать на сообщения
Вы не можете редактировать свои сообщения
Вы не можете удалять свои сообщения
Вы не можете добавлять вложения

Перейти:  

!ВНИМАНИЕ!
 Ресурс не предоставляет электронные версии произведений, а занимается лишь коллекционированием и каталогизацией ссылок, присылаемых и публикуемых на форуме нашими читателями. Если вы являетесь правообладателем какого-либо представленного материала и не желаете чтобы ссылка на него находилась в нашем каталоге, свяжитесь с нами и мы незамедлительно удалим её. Файлы для обмена на трекере предоставлены пользователями сайта, и администрация не несёт ответственности за их содержание. Просьба не заливать файлы, защищенные авторскими правами, а также файлы нелегального содержания!