На всех торрентах на трекере установлена скидка на скачивание в размере 100 процентов(а).
 Возможность скачивания торрента НЕ зависит от ограничений при низком ратио, низком аплоаде, требуемом ратио или требуемом аплоаде.


Начать новую тему Ответить на тему
Статистика раздачи
Размер: 4.64 ГБ | Добавлен: 20 окт 2012, 20:06 | Скачали: 19
Сидеров: 2  [0 байт/сек]    Личеров: 1  [0 байт/сек]
Пред. тема | След. тема 

Автор
Сообщение

СообщениеДобавлено: 20 окт 2012, 20:06 

Хранилище 24 / Storage 24



О фильме: Лондон погружен в хаос. Военный самолет, перевозивший нечто опасное, разбился над городом. В абсолютной растерянности Лондон полностью изолируется, как и друзья Чарли, Шелли, Марк и Никки, которые вынуждены сосуществовать в Хранилище 24.

Название: Хранилище 24
Год выхода: 2012
Жанр: ужасы, фантастика
Режиссер: Йоханнес Робертс

В фильме снимались: Ноэль Кларк Колин О’Донохью Антония Кэмпбелл-Хьюджес Лаура Хэддок Джэми Кинг Алекс Прайс Нед Деннехи Джофф Белл Рут Геммелль Дэвей Фербенкс




Выпущено: Великобритания / Unstoppable Entertainment
Продолжительность: 01:26:57
Озвучивание: Любительское (двухголосое) [den904 и DeadSno]



Формат: MKV
Качество: BDRip 720p | L2
Видео: AVC, 1280x688, 23.976 fps, ~ 5 685 Kbit/s
Аудио 1 : Russian: АС3, 48000 Hz, 6 каналов, 448 kbit/s
Аудио 2 : English: DTS, 48000 Hz, 6 каналов, 1510 kbit/s
Субтитры: English

Общее
Уникальный идентификатор : 240306532243461238099322939758096466698 (0xB4C95AC8E5C829A78334A2EA969CC30A)
Полное имя : H:ТоррентыHranilishe.24.2012.L2.BDRip.720p.mkv
Формат : Matroska
Версия формата : Version 2
Размер файла : 4,64 Гбайт
Продолжительность : 1 ч. 26 м.
Общий поток : 7642 Кбит/сек
Название фильма : X-TORRENTS
Дата кодирования : UTC 2012-10-20 12:06:15
Программа кодирования : mkvmerge v5.2.0 ('I can't explain') built on Dec 18 2011 18:12:03
Библиотека кодирования : libebml v1.2.3 + libmatroska v1.3.0

Видео
Идентификатор : 1
Формат : AVC
Формат/Информация : Advanced Video Codec
Профиль формата : High@L4.1
Параметр CABAC формата : Да
Параметр ReFrames формата : 5 кадров
Идентификатор кодека : V_MPEG4/ISO/AVC
Продолжительность : 1 ч. 26 м.
Битрейт : 5685 Кбит/сек
Ширина : 1280 пикселей
Высота : 688 пикселей
Соотношение сторон : 1,860
Частота кадров : 23,976 кадра/сек
Цветовое пространство : YUV
Субдискретизация насыщенности : 4:2:0
Битовая глубина : 8 бит
Тип развёртки : Прогрессивная
Бит/(Пиксели*Кадры) : 0.269
Размер потока : 3,36 Гбайт (72%)
Библиотека кодирования : x264 core 125 r2208 d9d2288
Настройки программы : cabac=1 / ref=5 / deblock=1:0:0 / analyse=0x3:0x113 / me=umh / subme=8 / psy=1 / psy_rd=1.00:0.00 / mixed_ref=1 / me_range=16 / chroma_me=1 / trellis=1 / 8x8dct=1 / cqm=0 / deadzone=21,11 / fast_pskip=1 / chroma_qp_offset=-2 / threads=12 / lookahead_threads=2 / sliced_threads=0 / nr=0 / decimate=1 / interlaced=0 / bluray_compat=0 / constrained_intra=0 / bframes=3 / b_pyramid=2 / b_adapt=2 / b_bias=0 / direct=3 / weightb=1 / open_gop=0 / weightp=2 / keyint=240 / keyint_min=24 / scenecut=40 / intra_refresh=0 / rc_lookahead=50 / rc=2pass / mbtree=1 / bitrate=5685 / ratetol=1.0 / qcomp=0.60 / qpmin=0 / qpmax=69 / qpstep=4 / cplxblur=20.0 / qblur=0.5 / ip_ratio=1.40 / aq=1:1.00
Язык : English
Default : Да
Forced : Нет

Аудио #1
Идентификатор : 2
Формат : AC-3
Формат/Информация : Audio Coding 3
Расширение режима : CM (complete main)
Идентификатор кодека : A_AC3
Продолжительность : 1 ч. 26 м.
Вид битрейта : Постоянный
Битрейт : 448 Кбит/сек
Каналы : 6 каналов
Расположение каналов : Front: L C R, Side: L R, LFE
Частота : 48,0 КГц
Битовая глубина : 16 бит
Метод сжатия : С потерями
Размер потока : 279 Мбайт (6%)
Язык : Russian
Default : Да
Forced : Да

Аудио #2
Идентификатор : 3
Формат : DTS
Формат/Информация : Digital Theater Systems
Идентификатор кодека : A_DTS
Продолжительность : 1 ч. 26 м.
Вид битрейта : Постоянный
Битрейт : 1510 Кбит/сек
Каналы : 6 каналов
Расположение каналов : Front: L C R, Side: L R, LFE
Частота : 48,0 КГц
Битовая глубина : 24 бит
Метод сжатия : С потерями
Размер потока : 939 Мбайт (20%)
Язык : English
Default : Нет
Forced : Нет

Текст
Идентификатор : 4
Формат : UTF-8
Идентификатор кодека : S_TEXT/UTF8
Идентификатор кодека/Информация : UTF-8 Plain Text
Заголовок : English
Язык : English
Default : Нет
Forced : Нет

Меню
00:00:00.000 : en:00:00:00.000
00:04:07.205 : en:00:04:07.205
00:09:54.969 : en:00:09:54.969
00:13:11.457 : en:00:13:11.457
00:16:20.605 : en:00:16:20.605
00:19:50.981 : en:00:19:50.981
00:24:33.764 : en:00:24:33.764
00:28:02.890 : en:00:28:02.890
00:34:16.763 : en:00:34:16.763
00:41:36.202 : en:00:41:36.202
00:46:42.633 : en:00:46:42.633
00:51:35.426 : en:00:51:35.426
00:55:45.926 : en:00:55:45.926
00:59:33.737 : en:00:59:33.737
01:03:03.530 : en:01:03:03.530
01:08:09.711 : en:01:08:09.711
01:11:58.481 : en:01:11:58.481
01:13:39.457 : en:01:13:39.457
01:17:42.741 : en:01:17:42.741
01:22:28.986 : en:01:22:28.986


Приятного просмотра!
загрузка...
Правила, инструкции, FAQ!!!
Торрент  Добавлен [20 окт 2012, 20:06] Скачать торрент
Скачать торрент
[ Размер 12.19 КБ / Просмотров 33 ]

Статус
Проверен 
 
Размер  4.64 ГБ
Приватный: Нет (DHT включён)
.torrent скачан  19
Как залить торрент? | Как скачать Torrent? | Как смотреть и слушать онлайн?  


     Отправить личное сообщение
   
Страница 1 из 1
Показать сообщения за:  Поле сортировки  
Начать новую тему Ответить на тему

   Похожие торренты   Автор   Ответы   Просмотры   Последнее сообщение 
В этой теме нет новых непрочитанных сообщений. Скачать торрент Проверен [iPad] Пандорум / Pandorum (Кристиан Алверт / Christian Alvart) [2009 г., ужасы, фантастика, триллер, BDRip 720p]

в форуме Фильмы для iPod, iPhone, iPad, Размер: 2.46 ГБ, Здоровье: 100%

Гость

0
11|5

46
3

14 май 2015, 00:20

Гость Перейти к последнему сообщению

В этой теме нет новых непрочитанных сообщений. Скачать торрент 28 дней спустя / 28 Days Later... (Дэнни Бойл / Danny Boyle) [2002, Великобритания, ужасы, фантастика, триллер, BDRip 720p]

в форуме 720p | 1080p, Размер: 9.81 ГБ, Здоровье: 100%

Anonymous

0
61|19

41
37

25 фев 2014, 22:41

Anonymous Перейти к последнему сообщению

В этой теме нет новых непрочитанных сообщений. Скачать торрент Гробница дьявола (Геенна) / The Devil's Tomb (Джейсон Коннери / Jason Connery) [2009 г., ужасы, фантастика, боевик, триллер, BDRip] [720p/DVD5] DVO + Original

в форуме 720p | 1080p, Размер: 4.65 ГБ, Здоровье: 0%

Anonymous

0
0|0

46
0

25 фев 2014, 22:39

Anonymous Перейти к последнему сообщению

В этой теме нет новых непрочитанных сообщений. Скачать торрент Проверен Обитель зла. Проклятие в 3Д / Biohazard. Damnation 3D (Макото Камия / Makoto Kamiya) [2012, мультфильм, ужасы, фантастика, BDrip, 1080p] OverUnder / Вертикальная стереопара

в форуме 3D Мультфильмы, Размер: 16.51 ГБ, Здоровье: 100%

Anonymous

0
1|0

12
0

07 сен 2016, 18:23

Anonymous Перейти к последнему сообщению

В этой теме нет новых непрочитанных сообщений. Скачать торрент Проверен Обитель Зла: Проклятие 3Д/ Resident Evil: Damnation 3D (Макото Камия / Makoto Kamiya) [2012, мультфильм, ужасы, фантастика, BDRip-AVC] Half SideBySide / Горизонтальная анаморфная стереопара

в форуме 3D Мультфильмы, Размер: 7.8 ГБ, Здоровье: 0%

Anonymous

0
0|0

6
0

07 сен 2016, 17:57

Anonymous Перейти к последнему сообщению



Сейчас этот форум просматривают: нет зарегистрированных пользователей и гости: 1


Вы не можете начинать темы
Вы не можете отвечать на сообщения
Вы не можете редактировать свои сообщения
Вы не можете удалять свои сообщения
Вы не можете добавлять вложения

Перейти:  

!ВНИМАНИЕ!
 Ресурс не предоставляет электронные версии произведений, а занимается лишь коллекционированием и каталогизацией ссылок, присылаемых и публикуемых на форуме нашими читателями. Если вы являетесь правообладателем какого-либо представленного материала и не желаете чтобы ссылка на него находилась в нашем каталоге, свяжитесь с нами и мы незамедлительно удалим её. Файлы для обмена на трекере предоставлены пользователями сайта, и администрация не несёт ответственности за их содержание. Просьба не заливать файлы, защищенные авторскими правами, а также файлы нелегального содержания!