На всех торрентах на трекере установлена скидка на скачивание в размере 100 процентов(а).
 Возможность скачивания торрента НЕ зависит от ограничений при низком ратио, низком аплоаде, требуемом ратио или требуемом аплоаде.


Начать новую тему Ответить на тему
Статистика раздачи
Размер: 7.76 ГБ | Добавлен: 28 сен 2013, 19:12 | Скачали: 0
Сидеров: 0  [0 байт/сек]    Личеров: 0  [0 байт/сек]
Пред. тема | След. тема 

Автор
Сообщение

СообщениеДобавлено: 28 сен 2013, 19:12 

Информация о фильме
Название: Мост в Терабитию
Оригинальное название: Bridge to Terabithia
Год выхода: 2007
Жанр: фэнтези, драма, приключения, семейный
Режиссер: Габор Чупо
В ролях: Джош Хатчерсон, Анна-София Робб, Зои Дешанель, Роберт Патрик, Бэйли Мэдисон, Кейт Батлер, Девон Вуд, Эмма Фентон, Грэйс Брэнниган, Лэтэм Гейнс

О фильме: Надежды ученика пятого класса Джесса Аарона стать самым быстрым бегуном в классе разбились после того, как новичок Лесли Берк одержала победу в соревнованиях.

Оснований для враждебности по отношению друг к друг у Джесса и Лесли более чем достаточно, и тем не менее между ними завязывается дружба. Как тут не подружиться, если приходится быть королем и королевой в обнаруженном в лесу волшебном царстве?



Выпущено: Walden Media
Продолжительность: 01:35:32
Перевод: Дублированный (лицензия)

Файл
Кодек: x264
Качество: BDRip (источник: Blu-ray Disc)
Видео: 1920x1036 (1,85:1), 23.976 fps, 10.7 Mbps
Аудио #1: AC-3, 6 ch, 448 kbps (Rus)
Аудио #2: AC-3, 6 ch, 448 kbps (Eng)
Субтитры: Русские, Английские
Скачать: сэмпл

Скриншоты

Общее
Уникальный идентификатор : 208677010881544909684651041485177240631 (0x9CFDBAFB3ECB23D8B3E43A8BCF583C37)
Полное имя : Bridge.to.Terabithia.2007.BDRip.1080p.Rus.Eng.mkv
Формат : Matroska
Версия формата : Version 2
Размер файла : 7,76 Гбайт
Продолжительность : 1 ч. 35 м.
Общий поток : 11,6 Мбит/сек
Название фильма : Мост в Терабитию / Bridge to Terabithia (2007)
Дата кодирования : UTC 2013-09-28 06:57:47
Программа кодирования : mkvmerge v5.8.0 ('No Sleep / Pillow') built on Sep 2 2012 15:37:04
Библиотека кодирования : libebml v1.2.3 + libmatroska v1.3.0

Видео
Идентификатор : 1
Формат : AVC
Формат/Информация : Advanced Video Codec
Профиль формата : High@L4.1
Параметр CABAC формата : Да
Параметр ReFrames формата : 4 кадра
Идентификатор кодека : V_MPEG4/ISO/AVC
Продолжительность : 1 ч. 35 м.
Битрейт : 10,7 Мбит/сек
Ширина : 1920 пикселей
Высота : 1036 пикселей
Соотношение сторон : 1,853
Частота кадров : 23,976 кадра/сек
Цветовое пространство : YUV
Субдискретизация насыщенности : 4:2:0
Битовая глубина : 8 бит
Тип развёртки : Прогрессивная
Бит/(Пиксели*Кадры) : 0.225
Размер потока : 7,01 Гбайт (90%)
Заголовок : Release by AlexKa
Библиотека кодирования : x264 core 138 r2358 9e941d1
Настройки программы : cabac=1 / ref=4 / deblock=1:-3:-3 / analyse=0x3:0x133 / me=umh / subme=11 / psy=1 / psy_rd=1.00:0.00 / mixed_ref=1 / me_range=32 / chroma_me=1 / trellis=2 / 8x8dct=1 / cqm=0 / deadzone=21,11 / fast_pskip=0 / chroma_qp_offset=-2 / threads=12 / lookahead_threads=2 / sliced_threads=0 / nr=0 / decimate=0 / interlaced=0 / bluray_compat=0 / constrained_intra=0 / bframes=7 / b_pyramid=2 / b_adapt=2 / b_bias=0 / direct=3 / weightb=1 / open_gop=0 / weightp=2 / keyint=240 / keyint_min=23 / scenecut=40 / intra_refresh=0 / rc=2pass / mbtree=0 / bitrate=10733 / ratetol=1.0 / qcomp=0.60 / qpmin=0 / qpmax=69 / qpstep=4 / cplxblur=20.0 / qblur=0.5 / ip_ratio=1.40 / pb_ratio=1.30 / aq=1:0.70
Язык : English

Аудио #1
Идентификатор : 2
Формат : AC-3
Формат/Информация : Audio Coding 3
Расширение режима : CM (complete main)
Идентификатор кодека : A_AC3
Продолжительность : 1 ч. 35 м.
Вид битрейта : Постоянный
Битрейт : 448 Кбит/сек
Каналы : 6 каналов
Расположение каналов : Front: L C R, Side: L R, LFE
Частота : 48,0 КГц
Битовая глубина : 16 бит
Метод сжатия : С потерями
Размер потока : 306 Мбайт (4%)
Заголовок : Rus
Язык : Russian

Аудио #2
Идентификатор : 3
Формат : AC-3
Формат/Информация : Audio Coding 3
Расширение режима : CM (complete main)
Идентификатор кодека : A_AC3
Продолжительность : 1 ч. 35 м.
Вид битрейта : Постоянный
Битрейт : 448 Кбит/сек
Каналы : 6 каналов
Расположение каналов : Front: L C R, Side: L R, LFE
Частота : 48,0 КГц
Битовая глубина : 16 бит
Метод сжатия : С потерями
Размер потока : 306 Мбайт (4%)
Заголовок : Eng
Язык : English

Текст #1
Идентификатор : 4
Формат : UTF-8
Идентификатор кодека : S_TEXT/UTF8
Идентификатор кодека/Информация : UTF-8 Plain Text
Заголовок : Rus
Язык : Russian

Текст #2
Идентификатор : 5
Формат : UTF-8
Идентификатор кодека : S_TEXT/UTF8
Идентификатор кодека/Информация : UTF-8 Plain Text
Заголовок : Eng
Язык : English

Меню
00:00:00.000 : en:Jess Aarons
00:05:55.355 : en:Leslie Burke
00:08:16.162 : en:Fastest Kid in the Fifth Grade
00:12:52.938 : en:"Why Can't We Be Friends?"
00:20:07.247 : en:Enchanged Rope
00:27:22.807 : en:Rulers of Terabithia
00:38:50.828 : en:Prince Terrien, Giant Troll Hunter
00:48:29.406 : en:The Golden Room
00:54:57.752 : en:Church Sunday
00:57:36.536 : en:Lost Keys
01:05:47.985 : en:The Perfect Day
01:09:52.813 : en:No!
01:13:10.552 : en:Stranded
01:23:52.736 : en:Building the Bridge
01:30:38.766 : en:Credits
загрузка...
Правила, инструкции, FAQ!!!
Торрент  Добавлен [28 сен 2013, 19:12] Скачать торрент
Скачать торрент
[ Размер 39.28 КБ / Просмотров 13 ]

Статус  
 
Размер  7.76 ГБ
Приватный: Нет (DHT включён)
.torrent скачан  0
Как залить торрент? | Как скачать Torrent? | Как смотреть и слушать онлайн?  


     Отправить личное сообщение
   
Страница 1 из 1
Показать сообщения за:  Поле сортировки  
Начать новую тему Ответить на тему

   Похожие торренты   Автор   Ответы   Просмотры   Последнее сообщение 
В этой теме нет новых непрочитанных сообщений. Скачать торрент Мост в Терабитию / Bridge to Terabithia (Габор Ксупо / Gabor Csupo) [2007 г., Приключения, Семейный, Фэнтези, Драма, HDRip] Dub

в форуме Детское, Семейное кино, Размер: 746.75 МБ, Здоровье: 100%

Anonymous

0
23|7

56
0

03 апр 2014, 12:45

Anonymous Перейти к последнему сообщению

В этой теме нет новых непрочитанных сообщений. Скачать торрент Проверен Мост в Другой Мир 2: Иные / Bridge to Another World 2: The Others CE (2015) РС

в форуме Приключения и квесты|я ищу, Размер: 1.29 ГБ, Здоровье: 100%

Anonymous

0
873|100

97
733

02 май 2015, 01:04

Anonymous Перейти к последнему сообщению

В этой теме нет новых непрочитанных сообщений. Скачать торрент Проверен Шпионский мост / Bridge of Spies (2015) HDRip | Чистый звук

в форуме Триллеры, Размер: 1.46 ГБ, Здоровье: 100%

Гость

0
7|1

397
5

20 янв 2016, 21:01

Гость Перейти к последнему сообщению

В этой теме нет новых непрочитанных сообщений. Скачать торрент Проверен Мост / Most / The Bridge (Бобби Гарабедиан / Bobby Garabedian, Уильям Забка / William Zabka) [2003 г., драма, DVDRip] VO + original + rus hardsub

в форуме Драмы, Мелодрамы, Размер: 294.72 МБ, Здоровье: 100%

Anonymous

0
50|17

38
0

31 окт 2014, 23:45

Anonymous Перейти к последнему сообщению

В этой теме нет новых непрочитанных сообщений. Скачать торрент Проверен (Progressive Folk) Bridge-Bridge - 1971, FLAC (tracks+.cue), lossless

в форуме Progressive & Art-Rock, Размер: 232.99 МБ, Здоровье: 0%

Anonymous

0
0|0

3
0

30 авг 2016, 21:37

Anonymous Перейти к последнему сообщению



Сейчас этот форум просматривают: нет зарегистрированных пользователей и гости: 2


Вы не можете начинать темы
Вы не можете отвечать на сообщения
Вы не можете редактировать свои сообщения
Вы не можете удалять свои сообщения
Вы не можете добавлять вложения

Перейти:  

!ВНИМАНИЕ!
 Ресурс не предоставляет электронные версии произведений, а занимается лишь коллекционированием и каталогизацией ссылок, присылаемых и публикуемых на форуме нашими читателями. Если вы являетесь правообладателем какого-либо представленного материала и не желаете чтобы ссылка на него находилась в нашем каталоге, свяжитесь с нами и мы незамедлительно удалим её. Файлы для обмена на трекере предоставлены пользователями сайта, и администрация не несёт ответственности за их содержание. Просьба не заливать файлы, защищенные авторскими правами, а также файлы нелегального содержания!