На всех торрентах на трекере установлена скидка на скачивание в размере 100 процентов(а).
 Возможность скачивания торрента НЕ зависит от ограничений при низком ратио, низком аплоаде, требуемом ратио или требуемом аплоаде.


Начать новую тему Ответить на тему
Статистика раздачи
Размер: 4.8 ГБ | Добавлен: 28 сен 2013, 19:06 | Скачали: 0
Сидеров: 0  [0 байт/сек]    Личеров: 0  [0 байт/сек]
Пред. тема | След. тема 

Автор
Сообщение

СообщениеДобавлено: 28 сен 2013, 19:06 

Название: Голый пистолет 33 1/3: Последний выпад
Оригинальное название: Naked Gun 33 1/3: The Final Insult
Год выпуска: 1994
Жанр: Боевик, комедия, криминал
Выпущено: США, Paramount Pictures
Режиссер: Питер Сигал
В ролях: Лесли Нильсен, Присцилла Пресли, Джордж Кеннеди, О. Дж. Симпсон, Фред Уорд, Кэтлин Фримен, Анна Николь Смит, Эллен Грин, Эд Уильямс, Рэй Бирк

О фильме: В тюрьму к известному бомбисту-террористу Рокко приходит представитель арабских террористов и предлагает ему и его мамаше совершить ужасающий теракт за 5 миллионов. Остановить его может только наш лейтенант Фрэнк Дребин, ушедший на пенсию и решающий брачные проблемы с супругой-адвокатессой.

Качество: BDRip 720p
Продолжительность: 01:22:36

Видео: MPEG-4 AVC, 5728 Кбит/с, 1280х720
Аудио 1: русский, 48 kHz, AC3, 6 ch, 448 kbps avg, [Профессиональный многоголосый]
Аудио 2: русский, 48 kHz, AC3, 2 ch, 192 kbps avg, [Профессиональный многоголосый, НТВ+]
Аудио 3: русский, 48 kHz, AC3, 6 ch, 448 kbps avg, [Профессиональный двухголосый, Инна королёва и Пётр Гланц]
Аудио 4: русский, 48 kHz, AC3, 6 ch, 448 kbps avg, [Авторский, Василий Горчаков]
Аудио 5: русский, 48 kHz, AC3, 6 ch, 448 kbps avg, [Авторский, Алексей Михалёв]
Аудио 6: английский, 48 kHz, AC3, 6 ch, 448 kbps avg, [Оригинал]
Субтитры 1: русские
Субтитры 2: английские
Субтитры 3: английские (для слабослышащих)





Общее
Уникальный идентификатор : 182301358136495496478837865120066426126 (0x8925F6E670F338749238BA4224F7D50E)
Полное имя : E:VideoGolyj.pistolet.33.1994.x264.BDRip.720p.mkv
Формат : Matroska
Версия формата : Version 4 / Version 2
Размер файла : 4,80 Гбайт
Продолжительность : 1 ч. 22 м.
Общий поток : 8326 Кбит/сек
Название фильма : Голый пистолет 33 1/3: Последний выпад / Naked Gun 33 1/3: The Final Insult / 1994 / BDRip -- STarankov
Дата кодирования : UTC 2013-09-28 04:17:07
Программа кодирования : mkvmerge v6.4.1 ('Omega Point') built on Sep 16 2013 22:05:10
Библиотека кодирования : libebml v1.3.0 + libmatroska v1.4.1

Видео
Идентификатор : 1
Формат : AVC
Формат/Информация : Advanced Video Codec
Профиль формата : High@L4.1
Параметр CABAC формата : Да
Параметр ReFrames формата : 9 кадров
Идентификатор кодека : V_MPEG4/ISO/AVC
Продолжительность : 1 ч. 22 м.
Битрейт : 5728 Кбит/сек
Ширина : 1280 пикселей
Высота : 720 пикселей
Соотношение сторон : 16:9
Режим частоты кадров : Постоянный
Частота кадров : 23,976 кадра/сек
Цветовое пространство : YUV
Субдискретизация насыщенности : 4:2:0
Битовая глубина : 8 бит
Тип развёртки : Прогрессивная
Бит/(Пиксели*Кадры) : 0.259
Размер потока : 3,31 Гбайт (69%)
Библиотека кодирования : x264 core 138 r2358 9e941d1
Настройки программы : cabac=1 / ref=9 / deblock=1:-3:-3 / analyse=0x3:0x113 / me=umh / subme=10 / psy=1 / psy_rd=1.00:0.15 / mixed_ref=1 / me_range=24 / chroma_me=1 / trellis=2 / 8x8dct=1 / cqm=0 / deadzone=21,11 / fast_pskip=0 / chroma_qp_offset=-3 / threads=6 / lookahead_threads=1 / sliced_threads=0 / nr=0 / decimate=1 / interlaced=0 / bluray_compat=0 / constrained_intra=0 / bframes=8 / b_pyramid=2 / b_adapt=2 / b_bias=0 / direct=1 / weightb=1 / open_gop=0 / weightp=2 / keyint=230 / keyint_min=23 / scenecut=40 / intra_refresh=0 / rc_lookahead=40 / rc=crf / mbtree=0 / crf=20.0 / qcomp=0.60 / qpmin=0 / qpmax=69 / qpstep=4 / vbv_maxrate=50000 / vbv_bufsize=62500 / crf_max=0.0 / nal_hrd=none / ip_ratio=1.40 / pb_ratio=1.30 / aq=1:1.00
Язык : English
Default : Да
Forced : Нет

Аудио #1
Идентификатор : 2
Формат : AC-3
Формат/Информация : Audio Coding 3
Расширение режима : CM (complete main)
Параметр Endianness формата : Big
Идентификатор кодека : A_AC3
Продолжительность : 1 ч. 22 м.
Вид битрейта : Постоянный
Битрейт : 448 Кбит/сек
Каналы : 6 каналов
Расположение каналов : Front: L C R, Side: L R, LFE
Частота : 48,0 КГц
Битовая глубина : 16 бит
Метод сжатия : С потерями
Размер потока : 265 Мбайт (5%)
Заголовок : MVO
Язык : Russian
Default : Да
Forced : Нет

Аудио #2
Идентификатор : 3
Формат : AC-3
Формат/Информация : Audio Coding 3
Расширение режима : CM (complete main)
Параметр Endianness формата : Big
Идентификатор кодека : A_AC3
Продолжительность : 1 ч. 22 м.
Вид битрейта : Постоянный
Битрейт : 192 Кбит/сек
Каналы : 2 канала
Расположение каналов : Front: L R
Частота : 48,0 КГц
Битовая глубина : 16 бит
Метод сжатия : С потерями
Размер потока : 113 Мбайт (2%)
Заголовок : MVO (HTB+)
Язык : Russian
Default : Нет
Forced : Нет

Аудио #3
Идентификатор : 4
Формат : AC-3
Формат/Информация : Audio Coding 3
Расширение режима : CM (complete main)
Параметр Endianness формата : Big
Идентификатор кодека : A_AC3
Продолжительность : 1 ч. 22 м.
Вид битрейта : Постоянный
Битрейт : 448 Кбит/сек
Каналы : 6 каналов
Расположение каналов : Front: L C R, Side: L R, LFE
Частота : 48,0 КГц
Битовая глубина : 16 бит
Метод сжатия : С потерями
Размер потока : 265 Мбайт (5%)
Заголовок : DVO (Инна Королёва и Пётр Гланц)
Язык : Russian
Default : Нет
Forced : Нет

Аудио #4
Идентификатор : 5
Формат : AC-3
Формат/Информация : Audio Coding 3
Расширение режима : CM (complete main)
Параметр Endianness формата : Big
Идентификатор кодека : A_AC3
Продолжительность : 1 ч. 22 м.
Вид битрейта : Постоянный
Битрейт : 448 Кбит/сек
Каналы : 6 каналов
Расположение каналов : Front: L C R, Side: L R, LFE
Частота : 48,0 КГц
Битовая глубина : 16 бит
Метод сжатия : С потерями
Размер потока : 265 Мбайт (5%)
Заголовок : AVO (Василий Горчаков)
Язык : Russian
Default : Нет
Forced : Нет

Аудио #5
Идентификатор : 6
Формат : AC-3
Формат/Информация : Audio Coding 3
Расширение режима : CM (complete main)
Параметр Endianness формата : Big
Идентификатор кодека : A_AC3
Продолжительность : 1 ч. 22 м.
Вид битрейта : Постоянный
Битрейт : 448 Кбит/сек
Каналы : 6 каналов
Расположение каналов : Front: L C R, Side: L R, LFE
Частота : 48,0 КГц
Битовая глубина : 16 бит
Метод сжатия : С потерями
Размер потока : 265 Мбайт (5%)
Заголовок : AVO (Алексей Михалёв)
Язык : Russian
Default : Нет
Forced : Нет

Аудио #6
Идентификатор : 7
Формат : AC-3
Формат/Информация : Audio Coding 3
Расширение режима : CM (complete main)
Параметр Endianness формата : Big
Идентификатор кодека : A_AC3
Продолжительность : 1 ч. 22 м.
Вид битрейта : Постоянный
Битрейт : 448 Кбит/сек
Каналы : 6 каналов
Расположение каналов : Front: L C R, Side: L R, LFE
Частота : 48,0 КГц
Битовая глубина : 16 бит
Метод сжатия : С потерями
Размер потока : 265 Мбайт (5%)
Заголовок : Original
Язык : English
Default : Нет
Forced : Нет

Текст #1
Идентификатор : 8
Формат : UTF-8
Идентификатор кодека : S_TEXT/UTF8
Идентификатор кодека/Информация : UTF-8 Plain Text
Заголовок : русский
Язык : Russian
Default : Нет
Forced : Нет

Текст #2
Идентификатор : 9
Формат : UTF-8
Идентификатор кодека : S_TEXT/UTF8
Идентификатор кодека/Информация : UTF-8 Plain Text
Заголовок : английский
Default : Нет
Forced : Нет

Текст #3
Идентификатор : 10
Формат : UTF-8
Идентификатор кодека : S_TEXT/UTF8
Идентификатор кодека/Информация : UTF-8 Plain Text
Заголовок : английский (для слабослышащих)
Default : Нет
Forced : Нет

---[Information] [28.09.2013 1:33:44] avs [info]: 1280x720p 1:1 @ 24000/1001 fps (cfr)
---[Information] [28.09.2013 1:33:44] x264 [info]: using SAR=1/1
---[Information] [28.09.2013 1:33:44] x264 [info]: using cpu capabilities: MMX2 SSE2Fast SSSE3 SSE4.2
---[Information] [28.09.2013 1:33:44] x264 [info]: profile High, level 4.1
---[Information] [28.09.2013 10:37:22] x264 [info]: frame I:1173 Avg QP:20.10 size: 98728
---[Information] [28.09.2013 10:37:23] x264 [info]: frame P:22878 Avg QP:21.48 size: 53404
---[Information] [28.09.2013 10:37:23] x264 [info]: frame B:94779 Avg QP:23.74 size: 24394
---[Information] [28.09.2013 10:37:23] x264 [info]: consecutive B-frames: 1.7% 0.9% 3.9% 12.7% 16.2% 54.4% 5.6% 2.6% 2.2%
---[Information] [28.09.2013 10:37:23] x264 [info]: mb I I16..4: 4.3% 84.3% 11.4%
---[Information] [28.09.2013 10:37:23] x264 [info]: mb P I16..4: 0.6% 25.9% 1.5% P16..4: 31.9% 24.2% 11.2% 0.0% 0.0% skip: 4.8%
---[Information] [28.09.2013 10:37:23] x264 [info]: mb B I16..4: 0.1% 2.3% 0.2% B16..8: 44.0% 14.5% 3.7% direct:10.4% skip:24.8% L0:46.4% L1:43.5% BI:10.0%
---[Information] [28.09.2013 10:37:23] x264 [info]: 8x8 transform intra:91.3% inter:62.4%
---[Information] [28.09.2013 10:37:23] x264 [info]: coded y,uvDC,uvAC intra: 95.7% 89.0% 59.2% inter: 45.1% 34.2% 2.2%
---[Information] [28.09.2013 10:37:23] x264 [info]: i16 v,h,dc,p: 61% 16% 7% 17%
---[Information] [28.09.2013 10:37:23] x264 [info]: i8 v,h,dc,ddl,ddr,vr,hd,vl,hu: 9% 6% 9% 11% 15% 14% 12% 12% 12%
---[Information] [28.09.2013 10:37:23] x264 [info]: i4 v,h,dc,ddl,ddr,vr,hd,vl,hu: 9% 6% 2% 10% 17% 17% 14% 13% 12%
---[Information] [28.09.2013 10:37:23] x264 [info]: i8c dc,h,v,p: 41% 22% 19% 18%
---[Information] [28.09.2013 10:37:23] x264 [info]: Weighted P-Frames: Y:6.6% UV:3.6%
---[Information] [28.09.2013 10:37:23] x264 [info]: ref P L0: 38.2% 11.5% 21.1% 8.0% 7.1% 4.7% 4.4% 2.4% 2.4% 0.2% 0.0%
---[Information] [28.09.2013 10:37:23] x264 [info]: ref B L0: 66.2% 14.0% 7.7% 4.3% 3.2% 2.7% 1.4% 0.5%
---[Information] [28.09.2013 10:37:23] x264 [info]: ref B L1: 91.2% 8.8%
---[Information] [28.09.2013 10:37:23] x264 [info]: kb/s:5890.92
---[Information] [28.09.2013 10:37:23] encoded 118830 frames, 3.64 fps, 5890.92 kb/s
--[Information] [28.09.2013 10:37:24] Final statistics
---[Information] [28.09.2013 10:37:24] Constant Quality Mode: Quality 20 computed...
---[Information] [28.09.2013 10:37:24] Video Bitrate Obtained (approximate): 5892 kbit/s
--[Information] [28.09.2013 10:37:24] MediaInfo
---[Information] File: E:RipGolyj.pistolet.33.1994.x264.BDRipGolyj.pistolet.33.1994.x264.BDRip.720p.mkv



загрузка...
Правила, инструкции, FAQ!!!
Торрент  Добавлен [28 сен 2013, 19:06] Скачать торрент
Скачать торрент
[ Размер 24.48 КБ / Просмотров 16 ]

Статус  
 
Размер  4.8 ГБ
Приватный: Нет (DHT включён)
.torrent скачан  0
Как залить торрент? | Как скачать Torrent? | Как смотреть и слушать онлайн?  


     Отправить личное сообщение
   
Страница 1 из 1
Показать сообщения за:  Поле сортировки  
Начать новую тему Ответить на тему

   Похожие торренты   Автор   Ответы   Просмотры   Последнее сообщение 
В этой теме нет новых непрочитанных сообщений. Скачать торрент Голый пистолет 33 1/3: Последний выпад / Naked Gun 33 1/3: The Final Insult (Питер Сигал / Peter Segal) [1994, США, Пародийная комедия, HDTVRip] AVO (Юрий Живов)

в форуме Комедии, Размер: 1.38 ГБ, Здоровье: 0%

Anonymous

0
0|0

35
0

01 фев 2014, 19:06

Anonymous Перейти к последнему сообщению

В этой теме нет новых непрочитанных сообщений. Скачать торрент Проверен Jamie Oliver - The Naked Chef 2 / Джеймс Оливер - Голый Шеф 2 [2003, PDF, ENG]

в форуме Кулинария, Размер: 1.13 МБ, Здоровье: 100%

Anonymous

0
1|0

5
1

19 окт 2016, 23:01

Anonymous Перейти к последнему сообщению

В этой теме нет новых непрочитанных сообщений. Скачать торрент Проверен Последний вариант / Final combination (1994) HDTVRip | P2

в форуме Триллеры, Размер: 1.45 ГБ, Здоровье: 100%

Гость

0
48|15

157
77

12 апр 2016, 21:01

Гость Перейти к последнему сообщению

В этой теме нет новых непрочитанных сообщений. Скачать торрент Проверен Голые амбиции / Naked Ambition (2014) BDRip 720p | L1

в форуме 720p | 1080p, Размер: 5.6 ГБ, Здоровье: 100%

Anonymous

0
72|5

22
4626

31 июл 2014, 15:00

Anonymous Перейти к последнему сообщению

В этой теме нет новых непрочитанных сообщений. Скачать торрент Проверен Последний самурай / The Last Samurai (2003) BDRip 720p

в форуме 720p | 1080p, Размер: 3.59 ГБ, Здоровье: 100%

Гость

0
26|2

27
19

04 дек 2014, 17:15

Гость Перейти к последнему сообщению



Сейчас этот форум просматривают: нет зарегистрированных пользователей и гости: 2


Вы не можете начинать темы
Вы не можете отвечать на сообщения
Вы не можете редактировать свои сообщения
Вы не можете удалять свои сообщения
Вы не можете добавлять вложения

Перейти:  

!ВНИМАНИЕ!
 Ресурс не предоставляет электронные версии произведений, а занимается лишь коллекционированием и каталогизацией ссылок, присылаемых и публикуемых на форуме нашими читателями. Если вы являетесь правообладателем какого-либо представленного материала и не желаете чтобы ссылка на него находилась в нашем каталоге, свяжитесь с нами и мы незамедлительно удалим её. Файлы для обмена на трекере предоставлены пользователями сайта, и администрация не несёт ответственности за их содержание. Просьба не заливать файлы, защищенные авторскими правами, а также файлы нелегального содержания!